请选择 进入手机版 | 继续访问电脑版

中国高清论坛

 找回密码
 立即注册
查看: 2815|回复: 122

[动作片] 浪客剑心 / 神剑闯江湖(台) Rurouni.Kenshin.2012.iNTERNAL.720p.BluRay.x264-LiBRARiANS.3.29G

  [复制链接]

1万

主题

21

好友

10万

积分

超级版主

Rank: 8Rank: 8

UID
217048
主题
10188
金钱
39057
高清币
22195
鲜花
18
阅读权限
150
最后登录
2017-8-31
发表于 2015-5-12 09:50:44 |显示全部楼层
1.jpg

◎译  名 浪客剑心/神剑闯江湖(台)
◎片  名 るろうに剣心
◎年  代 2012
◎国  家 日本
◎类  别 剧情/动作/历史
◎语  言 日语
◎上映日期 2012-08-25(日本)
◎IMDb评分  7.6/10 from 12,489 users
◎IMDb链接  http://www.imdb.com/title/tt1979319/
◎豆瓣评分 7.6/10 from 30,351 users
◎豆瓣链接 http://movie.douban.com/subject/6558801/
◎片  长 134分钟
◎导  演 大友启史 Keishi Ohtomo
◎主  演 佐藤健 Takeru Satô
      武井咲 Emi Takei
      吉川晃司 Kôji Kikkawa
      苍井优 Yu Aoi
      青木崇高 Munetaka Aoki
      绫野刚 Gô Ayano
      田中伟登 Taketo Tanaka
      奥田瑛二 Eiji Okuda
      江口洋介 Yôsuke Eguchi
      香川照之 Teruyuki Kagawa
      平田薫 Kaoru Hirata

◎简  介

  经历了动荡的明治维新,日本迎来新的时代。在明治政府第十个年头,不祥的气息弥漫东京。恶德实业家武田观柳(香川照之 饰)操纵女医师高荷惠(苍井优 饰)研制新型鸦片,公开招揽落魄武夫,大肆收购周边土地,有条不紊地实现他的狼子野心。在此期间,以刽子手拔刀斋之名滥杀无辜的鹈堂刃卫(吉川晃司 饰)引起了前新選组头目斋藤一(江口洋介 饰)的注意,也迫令隐姓埋名多年的拔刀斋本尊绯村剑心(佐藤健 饰)登场。寄居在神谷道场的绯村渐渐融入神谷薫(武井咲 饰)和周边庶民的平和生活之中。然而武田欲壑难平,为了保护善良的人,剑心不得不拔出逆刃刀和相乐佐之助(青木崇高 饰)勇闯虎穴……
  本片根据漫画家和月伸宏的经典原作改编。

◎获奖情况

  第36届日本电影学院奖 (2013)
  最佳新人 武井咲
  1. ------------------ LiBRARiANS --------------------------------

  2. TiTLE > Rurouni.Kenshin.2012.iNTERNAL.720p.BluRay.x264-LiBRARiANS
  3. LiNK  > http://www.imdb.com/title/tt1979319/

  4. Runtime: 134 mins avg
  5. Resolution/Video..: 1280x536 -/- CRF18
  6. Language .........: Japanese AC3 640 Kbps 6 channels
  7. Subtitles ........: English
  8. Release Date .....: 06/05/2k15

  9. A special thanks to our friends @ SADPANDA (source)
  10. Greetings : SADPANDA VoMiT DEUTERiUM MOOVEE
  11. TENEIGHTY MULTiPLY #FF0000BiRD

  12. --------------------------------------------------------------

  13. MediaInfo
  14. Video
  15. ID                                       : 1
  16. Format                                   : AVC
  17. Format/Info                              : Advanced Video Codec
  18. Format profile                           : High@L4.1
  19. Format settings, CABAC                   : Yes
  20. Format settings, ReFrames                : 5 frames
  21. Codec ID                                 : V_MPEG4/ISO/AVC
  22. Duration                                 : 2h 14mn
  23. Bit rate                                 : 2 795 Kbps
  24. Width                                    : 1 280 pixels
  25. Height                                   : 536 pixels
  26. Display aspect ratio                     : 2.40:1
  27. Frame rate mode                          : Constant
  28. Frame rate                               : 23.976 fps
  29. Color space                              : YUV
  30. Chroma subsampling                       : 4:2:0
  31. Bit depth                                : 8 bits
  32. Scan type                                : Progressive
  33. Bits/(Pixel*Frame)                       : 0.170
  34. Stream size                              : 2.62 GiB (80%)
  35. Writing library                          : x264 core 146 r2538 121396c
  36. Encoding settings                        : cabac=1 / ref=5 / deblock=1:0:0 / analyse=0x3:0x113 / me=umh / subme=8 / psy=1 / psy_rd=1.00:0.00 / mixed_ref=1 / me_range=16 / chroma_me=1 / trellis=1 / 8x8dct=1 / cqm=0 / deadzone=21,11 / fast_pskip=1 / chroma_qp_offset=-2 / threads=12 / lookahead_threads=2 / sliced_threads=0 / nr=0 / decimate=1 / interlaced=0 / bluray_compat=0 / constrained_intra=0 / bframes=3 / b_pyramid=2 / b_adapt=2 / b_bias=0 / direct=3 / weightb=1 / open_gop=0 / weightp=2 / keyint=250 / keyint_min=23 / scenecut=40 / intra_refresh=0 / rc_lookahead=50 / rc=crf / mbtree=1 / crf=18.0 / qcomp=0.60 / qpmin=0 / qpmax=69 / qpstep=4 / ip_ratio=1.40 / aq=1:1.00
  37. Language                                 : Japanese
  38. Default                                  : Yes
  39. Forced                                   : No
  40. _STATISTICS_WRITING_APP                  : mkvmerge v7.8.0 ('River Man') 64bit built on Mar 27 2015 16:31:37
  41. _STATISTICS_WRITING_DATE_UTC             : 2015-05-06 07:45:27
  42. _STATISTICS_TAGS                         : BPS DURATION NUMBER_OF_FRAMES NUMBER_OF_BYTES
  43. DURATION                                 : 02:14:25.600000000
  44. NUMBER_OF_FRAMES                         : 193381
  45. NUMBER_OF_BYTES                          : 2886478949

  46. Audio
  47. ID                                       : 2
  48. Format                                   : AC-3
  49. Format/Info                              : Audio Coding 3
  50. Mode extension                           : CM (complete main)
  51. Format settings, Endianness              : Big
  52. Codec ID                                 : A_AC3
  53. Duration                                 : 2h 14mn
  54. Bit rate mode                            : Constant
  55. Bit rate                                 : 640 Kbps
  56. Channel(s)                               : 6 channels
  57. Channel positions                        : Front: L C R, Side: L R, LFE
  58. Sampling rate                            : 48.0 KHz
  59. Bit depth                                : 16 bits
  60. Compression mode                         : Lossy
  61. Stream size                              : 615 MiB (18%)
  62. Title                                    : Japanese
  63. Language                                 : Japanese
  64. Default                                  : Yes
  65. Forced                                   : No

  66. Text
  67. ID                                       : 3
  68. Format                                   : UTF-8
  69. Codec ID                                 : S_TEXT/UTF8
  70. Codec ID/Info                            : UTF-8 Plain Text
  71. Title                                    : English
  72. Language                                 : English
  73. Default                                  : No
  74. Forced                                   : No
复制代码
2.jpg

游客,如果您要查看本帖隐藏内容请回复
回复

使用道具 举报

2

主题

0

好友

331

积分

知名艺人

Rank: 2

UID
319509
主题
2
金钱
210
高清币
18
鲜花
0
阅读权限
20
最后登录
2017-8-29
发表于 2015-5-12 10:25:52 |显示全部楼层
111111111111111111111111
回复

使用道具 举报

0

主题

0

好友

640

积分

知名艺人

Rank: 2

UID
219044
主题
0
金钱
471
高清币
4
鲜花
0
阅读权限
20
QQ
QQ
最后登录
2015-11-24
发表于 2015-5-12 11:04:54 |显示全部楼层
zhichishibuudea
回复

使用道具 举报

0

主题

0

好友

346

积分

知名艺人

Rank: 2

UID
348062
主题
0
金钱
201
高清币
30
鲜花
0
阅读权限
20
QQ
QQ
最后登录
2016-11-18
发表于 2015-5-12 11:09:52 |显示全部楼层
好像是老牌子
回复

使用道具 举报

0

主题

16

好友

2284

积分

人气偶像

Rank: 3Rank: 3

UID
126751
主题
0
金钱
1610
高清币
0
鲜花
0
阅读权限
30
QQ
QQ
最后登录
2015-9-13
发表于 2015-5-12 11:19:06 |显示全部楼层
dddddddddddddddddddd
回复

使用道具 举报

0

主题

0

好友

1139

积分

人气偶像

Rank: 3Rank: 3

UID
261347
主题
0
金钱
709
高清币
0
鲜花
0
阅读权限
30
QQ
QQ
最后登录
2017-2-19
发表于 2015-5-12 11:31:10 |显示全部楼层
谢谢lz,看看看
回复

使用道具 举报

1

主题

24

好友

7127

积分

金鸡奖主角

Rank: 5Rank: 5

UID
37336
主题
1
金钱
4689
高清币
90
鲜花
0
阅读权限
70
QQ
QQ
最后登录
2018-1-8
发表于 2015-5-12 11:32:09 |显示全部楼层
感谢分享!!!
回复

使用道具 举报

0

主题

0

好友

798

积分

知名艺人

Rank: 2

UID
198534
主题
0
金钱
573
高清币
9
鲜花
0
阅读权限
20
QQ
QQ
最后登录
2017-5-12
发表于 2015-5-12 11:36:56 |显示全部楼层
看看。。。。。。。。。。。。。。。
回复

使用道具 举报

1

主题

0

好友

2万

积分

superstar

Rank: 9Rank: 9Rank: 9

UID
132579
主题
1
金钱
10259
高清币
1208
鲜花
0
阅读权限
90
QQ
QQ
最后登录
2017-12-24
发表于 2015-5-12 12:00:49 |显示全部楼层
感谢楼主分享精彩电影!
回复

使用道具 举报

0

主题

0

好友

3468

积分

天王巨星

Rank: 4

UID
297591
主题
0
金钱
2564
高清币
1
鲜花
0
阅读权限
50
QQ
QQ
最后登录
2017-11-14
发表于 2015-5-12 12:41:17 |显示全部楼层
感谢楼主分享精彩电影!
回复

使用道具 举报

期待您加入中国高清论坛QQ交流1群:197652384
 懒得打字嘛,点击右侧快捷回复【左侧自定义内容】  【右侧自定义内容】
您需要登录后才可以回帖 登录 | 立即注册

回顶部