请选择 进入手机版 | 继续访问电脑版

中国高清论坛

 找回密码
 立即注册
查看: 4795|回复: 396

[动作片] 血光光五人帮 传说[内封中字]Gonin.Saga.2015.1080p.BluRay.x264.DTS-WiKi.12G

  [复制链接]

1万

主题

21

好友

10万

积分

退役管理

Rank: 7Rank: 7Rank: 7

UID
217048
主题
10189
金钱
39115
高清币
22196
鲜花
18
阅读权限
150
最后登录
2018-5-27
发表于 2016-4-6 17:24:44 |显示全部楼层
本帖最后由 茶餐厅 于 2016-4-6 17:26 编辑

1.jpg

◎译  名 血光光五人帮 传说/血光光五人帮3
◎片  名 GONIN サーガ
◎年  代 2015
◎国  家 日本
◎类  别 动作
◎语  言 日语
◎上映日期 2015-09-26(日本)
◎IMDb评分  5.2/10 from 34 users
◎IMDb链接  http://www.imdb.com/title/tt3809492/
◎豆瓣评分 6.5/10 from 19 users
◎豆瓣链接 https://movie.douban.com/subject/25908044/
◎片  长 129分钟
◎导  演 石井隆 Takashi Ishii
◎主  演 东出昌大 Masahiro Higashide
      桐谷健太 Kenta Kiritani
      土屋安娜 Anna Tsuchiya
      柄本佑 Tasuku Emoto
      安藤政信 Masanobu Andô
      竹中直人 Naoto Takenaka
      福岛莉拉 Rila Fukushima
      井上晴美 Harumi Inoue
      镰田小惠子 Lily
      松本若菜 Wakana Matsumoto
      菅田俊 Shun Sugata
      井坂俊哉 Shunya Isaka

◎简  介

  19年前,日本刚好处在泡沫经济崩溃的黯淡时代。万代树木彦联合其他四名有着不同背景的失意之人组成五人帮,咆哮着向财大气粗的黑帮组织大越组发动袭击。他们的计划虽然获得成功,却也为此付出惨痛的代价。

转眼进入了21世纪,老一辈的黑帮头子相继退出历史舞台,年轻一代则迅速崛起,追溯着祖父辈的步伐走入了刀头舔血的黑道世界。大越组所属的上级组织五诚会,现由初代会长的孙子式根诚司(安藤政信 饰)担任第三代会长。他表面的身份是某艺能公司社长,在合法身份的掩护下则横行霸道,大发其财。

原大越组若头久松茂的儿子久松勇人(东出昌大 饰)目前正在一家建筑公司任职,他与母亲安惠(井上晴美 饰)相依为命,过着平静的生活。在参加大越组组长大越康正的葬礼期间,他邂逅了大越的儿子大辅(桐谷健太 饰)。此时大辅在式根的麾下担任保镖,他向勇人提议,希望借机重建大越组。

与此同时,式根拥有万代当年经营的俱乐部,而今改建成时尚喧嚣的娱乐场所。某天,他带着未婚妻百合香(松本若菜 饰)来到这里享乐,结果遭遇了菊池麻美(土屋安娜 饰)的袭击。麻美曾经是一名偶像,但是她的弱点被式根掌握,从而沦为对方的情人。麻美的复仇并未成功,反遭到对方一顿毒打,接着如同野狗一般被赶了出去。大辅从麻美口中得知她的遭遇,内心升起深深的同情。

此后不久,一直试图追查19年前大越组袭击事件始末真相的记者森泽庆一(柄本佑 饰)出现在麻美面前。以此为契机,新一代的五人帮相继结成,他们共同将式根的巨额黑金锁定为狙击目标。恼羞成怒的式根绝不善罢甘休,他派出冷血杀手明神(竹中直人 饰)和余市(福岛莉拉 饰)对这五个人展开追杀。在连绵的雨夜,无数人的命运由此发生彻底的改变……
  1. MediaInfo

  2. Video
  3. ID                                       : 1
  4. Format                                   : AVC
  5. Format/Info                              : Advanced Video Codec
  6. Format profile                           : High@L4.1
  7. Format settings, CABAC                   : Yes
  8. Format settings, ReFrames                : 4 frames
  9. Codec ID                                 : V_MPEG4/ISO/AVC
  10. Duration                                 : 2h 9mn
  11. Bit rate                                 : 11.7 Mbps
  12. Width                                    : 1 920 pixels
  13. Height                                   : 1 036 pixels
  14. Display aspect ratio                     : 1.85:1
  15. Frame rate mode                          : Constant
  16. Frame rate                               : 23.976 (24000/1001) fps
  17. Color space                              : YUV
  18. Chroma subsampling                       : 4:2:0
  19. Bit depth                                : 8 bits
  20. Scan type                                : Progressive
  21. Bits/(Pixel*Frame)                       : 0.245
  22. Stream size                              : 10.6 GiB (88%)
  23. Writing library                          : x264 core 129 r2245+704+36 8e61944 tMod+MixAQ [8-bit@4:2:0 X86_64]
  24. Encoding settings                        : cabac=1 / ref=4 / deblock=1:-3:-3 / analyse=0x3:0x133 / me=umh / subme=11 / psy=1 / fade_compensate=0.00 / psy_rd=1.05:0.10 / mixed_ref=1 / me_range=64 / chroma_me=1 / trellis=2 / 8x8dct=1 / cqm=0 / deadzone=21,11 / fast_pskip=0 / chroma_qp_offset=-3 / threads=12 / lookahead_threads=2 / sliced_threads=0 / nr=0 / decimate=0 / interlaced=0 / bluray_compat=0 / constrained_intra=0 / fgo=0 / bframes=10 / b_pyramid=2 / b_adapt=2 / b_bias=0 / direct=3 / weightb=1 / open_gop=0 / weightp=2 / keyint=250 / keyint_min=23 / scenecut=40 / intra_refresh=0 / rc_lookahead=80 / rc=2pass / mbtree=1 / bitrate=11704 / ratetol=1.0 / qcomp=0.70 / qpmin=0 / qpmax=69 / qpstep=4 / cplxblur=20.0 / qblur=0.5 / ip_ratio=1.40 / aq=1 / aq-strength=0.85 / aq-sensitivity=10.00 / aq-ifactor=1.00 / aq-pfactor=1.00 / aq-bfactor=1.00 / aq2=0
  25. Language                                 : Japanese
  26. Default                                  : Yes
  27. Forced                                   : No

  28. Audio
  29. ID                                       : 2
  30. Format                                   : DTS
  31. Format/Info                              : Digital Theater Systems
  32. Mode                                     : 16
  33. Format settings, Endianness              : Big
  34. Codec ID                                 : A_DTS
  35. Duration                                 : 2h 9mn
  36. Bit rate mode                            : Constant
  37. Bit rate                                 : 1 509 Kbps
  38. Channel(s)                               : 6 channels
  39. Channel positions                        : Front: L C R, Side: L R, LFE
  40. Sampling rate                            : 48.0 KHz
  41. Frame rate                               : 93.750 fps (512 spf)
  42. Bit depth                                : 24 bits
  43. Compression mode                         : Lossy
  44. Stream size                              : 1.37 GiB (11%)
  45. Language                                 : Japanese
  46. Default                                  : Yes
  47. Forced                                   : No

  48. Text
  49. ID                                       : 3
  50. Format                                   : ASS
  51. Codec ID                                 : S_TEXT/ASS
  52. Codec ID/Info                            : Advanced Sub Station Alpha
  53. Duration                                 : 2h 4mn
  54. Bit rate                                 : 83 bps
  55. Count of elements                        : 1578
  56. Compression mode                         : Lossless
  57. Stream size                              : 76.0 KiB (0%)
  58. Language                                 : Chinese
  59. Default                                  : Yes
  60. Forced                                   : No

  61. Menu
  62. 00:00:00.000                             : en:00:00:00.000
  63. 00:07:22.442                             : en:00:07:22.442
  64. 00:15:23.714                             : en:00:15:23.714
  65. 00:26:31.298                             : en:00:26:31.298
  66. 00:36:02.785                             : en:00:36:02.785
  67. 00:43:15.342                             : en:00:43:15.342
  68. 00:53:47.182                             : en:00:53:47.182
  69. 01:02:31.956                             : en:01:02:31.956
  70. 01:09:20.739                             : en:01:09:20.739
  71. 01:17:11.877                             : en:01:17:11.877
  72. 01:25:09.229                             : en:01:25:09.229
  73. 01:31:19.891                             : en:01:31:19.891
  74. 01:38:58.933                             : en:01:38:58.933
  75. 01:45:36.621                             : en:01:45:36.621
  76. 01:58:06.746                             : en:01:58:06.746
  77. 02:09:51.784                             : en:02:09:51.784
复制代码
24892751594009722716_thumb.png
35144340095147667461_thumb.png
46174125573894546623_thumb.png
61717296319218918109_thumb.png
67107833493096996462_thumb.png
86651313942923841594_thumb.png

游客,如果您要查看本帖隐藏内容请回复,如不想回复请点击赞助VIP贵宾:https://item.taobao.com/item.htm?id=540849877691

回复

使用道具 举报

0

主题

0

好友

5万

积分

永恒神话

Rank: 10Rank: 10Rank: 10

UID
83425
主题
0
金钱
22503
高清币
6248
鲜花
0
阅读权限
90
QQ
QQ
最后登录
2018-8-12
发表于 2016-4-6 17:28:16 |显示全部楼层
感谢楼主分享精彩电影!
回复

使用道具 举报

0

主题

0

好友

2304

积分

人气偶像

Rank: 3Rank: 3

UID
531527
主题
0
金钱
1430
高清币
63
鲜花
0
阅读权限
30
最后登录
2018-8-12
发表于 2016-4-6 17:28:19 |显示全部楼层
既然你诚信诚意的推荐了,那我就勉为其难的看看吧!
回复

使用道具 举报

0

主题

0

好友

6867

积分

金鸡奖主角

Rank: 5Rank: 5

UID
97007
主题
0
金钱
4582
高清币
6
鲜花
0
阅读权限
70
QQ
QQ
最后登录
2017-3-3
发表于 2016-4-6 17:28:41 |显示全部楼层
谢谢分享了~~谢谢
回复

使用道具 举报

0

主题

0

好友

1万

积分

好莱坞明星

Rank: 6Rank: 6

UID
96003
主题
0
金钱
6609
高清币
420
鲜花
0
阅读权限
90
最后登录
2017-8-6
发表于 2016-4-6 17:30:06 |显示全部楼层
感谢楼主分享精彩电影!
回复

使用道具 举报

0

主题

0

好友

4182

积分

VIP贵宾

Rank: 7Rank: 7Rank: 7

UID
375704
主题
0
金钱
2822
高清币
55
鲜花
0
阅读权限
100
QQ
QQ
最后登录
2018-8-14
发表于 2016-4-6 17:31:18 |显示全部楼层
感谢楼主分享精彩电影!

回复

使用道具 举报

0

主题

4

好友

8821

积分

金鸡奖主角

Rank: 5Rank: 5

UID
37209
主题
0
金钱
4621
高清币
419
鲜花
0
阅读权限
70
QQ
QQ
最后登录
2017-3-11
发表于 2016-4-6 17:32:31 |显示全部楼层
感谢楼主分享精彩电影!
回复

使用道具 举报

0

主题

0

好友

1万

积分

超级明星

Rank: 7Rank: 7Rank: 7

UID
282059
主题
0
金钱
8786
高清币
671
鲜花
0
阅读权限
90
QQ
QQ
最后登录
2018-8-14
发表于 2016-4-6 17:35:12 |显示全部楼层
有点意思!
回复

使用道具 举报

0

主题

0

好友

2976

积分

人气偶像

Rank: 3Rank: 3

UID
159347
主题
0
金钱
2372
高清币
6
鲜花
0
阅读权限
30
QQ
QQ
最后登录
2017-9-21
发表于 2016-4-6 17:38:01 |显示全部楼层
thanks for sharing
回复

使用道具 举报

0

主题

0

好友

4607

积分

天王巨星

Rank: 4

UID
170412
主题
0
金钱
3303
高清币
-7
鲜花
0
阅读权限
50
QQ
QQ
最后登录
2016-11-17
发表于 2016-4-6 17:38:39 |显示全部楼层
楼主分享的高清电影太好了!
回复

使用道具 举报

期待您加入中国高清论坛QQ交流6群:20818254
 懒得打字嘛,点击右侧快捷回复【左侧自定义内容】  【右侧自定义内容】
您需要登录后才可以回帖 登录 | 立即注册

回顶部