请选择 进入手机版 | 继续访问电脑版

中国高清论坛

11
 找回密码
 立即注册

QQ登录

只需一步,快速开始

查看: 2692|回复: 367

[动画片] 头脑特工队/头脑大作战/大脑环游记/脑中小小人/大脑内外/由内而外/头脑总动员/玩转脑朋友(港)/脑筋急转弯(台) [大陆公映版/普通话] Inside.Out.2015.R6.1080p.WEB-DL.x264.AAC-SeeHD 1.75 GiB

  [复制链接]

7970

主题

0

好友

4万

积分

区域版主

Rank: 8Rank: 8

UID
13244
主题
7970
金钱
19051
高清币
7863
鲜花
-99
阅读权限
100
QQ
QQ
最后登录
2017-3-27
发表于 2016-12-21 18:16:59 |显示全部楼层


◎译  名 头脑特工队/头脑大作战 / 大脑环游记 / 脑中小小人 / 大脑内外 / 由内而外 / 头脑总动员 /玩转脑朋友(港) / 脑筋急转弯(台)
◎片  名 Inside Out
◎年  代 2015
◎国  家 美国   
◎类  别 动画/冒险/喜剧
◎语  言 普通话
◎字  幕 N/A
◎IMDB评分 8.5/10 from 138,827 users
◎IMDB链接 http://www.imdb.com/title/tt2096673/
◎文件格式 x264 + AAC
◎视频尺寸 1920 x 1080
◎文件大小 1.75 GiB
◎片  长 1h 340mn
◎导  演 彼特·道格特 Pete Docter
      罗尼·德尔卡门 Ronaldo Del Carmen     
◎主  演 艾米·波勒 Amy Poehler ...Joy (voice)
      菲利斯·史密斯 Phyllis Smith ...Sadness (voice)
      Richard Kind ...Bing Bong (voice)
      比尔·哈德尔 Bill Hader ...Fear (voice)
      Lewis Black ...Anger (voice)
      Mindy Kaling ...Disgust (voice)
      Kaitlyn Dias ...Riley (voice)
      Diane Lane ...Mom (voice)
      Kyle MacLachlan ...Dad (voice)
      Paula Poundstone ...Forgetter Paula (voice)
      Bobby Moynihan ...Forgetter Bobby (voice)
      Paula Pell ...Dream Director / Mom's Anger (voice)
      Dave Goelz ...Subconscious Guard Frank (voice)
      Frank Oz ...Subconscious Guard Dave (voice)
      Josh Cooley ...Jangles (voice)  



 
          
◎简  介 


  可爱的小女孩莱莉(凯特林·迪亚斯 Kaitlyn Dias 配音)出生在明尼苏达州一个平凡的家庭中,从小她在父母的呵护下长大,脑海中保存着无数美好甜蜜的回忆。当然这些记忆还与几个莱莉未曾谋面的伙伴息息相关,他们就是人类的五种主要情绪:快乐(艾米·波勒 Amy Poehler 配音)、悲伤(菲利丝·史密斯 Phyllis Smith 配音)、恐惧(比尔·哈德尔 Bill Hader 配音)、厌恶(敏迪·卡灵 Mindy Kaling 配音)和愤怒(刘易斯·布莱克 Lewis Black 配音)。快乐作为团队的领导,她协同其他伙伴致力于为小主人营造更多美好的珍贵回忆。某天,莱莉随同父母搬到了旧金山,肮脏逼仄的公寓、陌生的校园环境、逐渐失落的友情都让莱莉无所适从,她的负面情绪逐渐累积,内心美好的世界渐次崩塌。

  为了保护这一切,快乐只有行动起来……

花絮

.导演指出片中每钟情绪都有特定形状,“愉悦”是星形的,“悲伤”像颗眼泪,“愤怒”如同火砖,“恐怖”像赤裸神经元,“厌恶”像西兰花——这不是在黑西兰花,导演声称是自己是西兰花爱好者。

.影片与福克斯电视台喜剧电视剧《赫曼的大脑》(1991-1994)创意类似,电视剧中,四名演员分别代表主人公赫曼的“智慧”、“感性”、“欲望”以及“焦虑”。

.《头脑特工队》是皮克斯动画出品的第15部长片;也是彼特·道格特继《机器人总动员》和《飞屋环游记》之后执导的第三部作品。

.在《头脑特工队》之前,皮克斯只有3部电影被评为PG家长指引观看等级(其它为全年龄等级)。

.彼特·道格特从自己女儿的成长经历中找到了创作这部电影的灵感。

.彼特·道格特强调影片创作难度大,因为必须完成两条故事线的讲述,封面是主人公小女孩的现实世界与脑中世界。

.编剧组一共考虑了27种不同的情绪,最终只挑选出五种,使得股市更简化。另外一些非常重要的情绪包括“惊异”、“骄傲”、“信任”等没能出现。

.影片三位配音主演曾出演过NBC喜剧《办公室》,其中敏迪·卡灵、菲利斯·史密斯是常驻演员,比尔·哈德尔曾客串。

.迈克·吉亚奇诺第五次为皮克斯电影配乐,之前与彼特·道格特合作的《飞屋环游记》曾获奥斯卡最佳配乐奖。

.美工设计师拉夫·埃格尔斯顿为这部影片花费五年半时间,这是他参与的工作时间最长、难度最大的电影。

.《头脑特工队》的动画师团队只有45人,这是皮克斯之前长片动画师团队规模的一半。

.影片背景设置在洛杉矶,Riley的家是一个真实存在的地方。在电影中,房子的地址被改为皇家街21号(21 Royal St),在迪士尼乐园中,这个地址是位于Club 33附近的一个私人餐厅。

.情绪小人的指挥总部内充满了记忆球,而记忆球中的场景其实都来自于《飞屋环游记》最感人的“婚姻生活”桥段。

.在莱莉和父母搬家去旧金山的路上,他们遇见了一群停在电话线上的小鸟,它们可是来自本片艺术指导拉夫·埃格尔斯顿2000年创作的短片《鸟!鸟!鸟!》哦。

.莱莉教室中的地球仪在三部《玩具总动员》中都曾出现过。

.莱莉的一个同学穿着一件印有《玩具总动员》角色的衣服。

.影片背景中,一些驰骋在旧金山街道上的车辆都贴着来自《赛车总动员》的贴纸。

.莱莉爸爸的新公司叫“布朗”(Brang),这在英语中是个无意义的单词,有意起这个听起来像创业公司的名字就是为了使它能与湾区的创业氛围搭调。

.旧金山一个停车咪表上写着:“请投入25美分或1美元硬币,或者用‘火人节’期间物品交换。”20为了向华特·迪士尼家族博物馆致敬,片中莱莉在旧金山的冰球场地址,就是现实生活中华特迪士尼家族博物馆的位置。

获奖记录

青少年选择奖(2015;第17届)
提名
·青少年选择奖-最佳夏日电影女星艾米·波勒 Amy Poehler  
·青少年选择奖-最佳夏日电影
·青少年选择奖-最佳电影怒火戏刘易斯·布莱克 Lewis Black
  1. Format                      : Matroska
  2. Format version              : Version 4 / Version 2
  3. File size                   : 1.75 GiB
  4. Duration                    : 1 h 30 min
  5. Overall bit rate            : 2 759 kb/s
  6. Encoded date                : UTC 2016-06-14 03:51:14


  7. Video
  8. ID                          : 1
  9. Format                      : AVC
  10. Format/Info                 : Advanced Video Codec
  11. Format profile              : High@L4
  12. Format settings, CABAC      : Yes
  13. Format settings, ReFrames   : 3 frames
  14. Codec ID                    : V_MPEG4/ISO/AVC
  15. Duration                    : 1 h 30 min
  16. Bit rate                    : 2 693 kb/s
  17. Width                       : 1 920 pixels
  18. Height                      : 1 080 pixels
  19. Display aspect ratio        : 16:9
  20. Frame rate mode             : Constant
  21. Frame rate                  : 25.000 FPS
  22. Color space                 : YUV
  23. Chroma subsampling          : 4:2:0
  24. Bit depth                   : 8 bits
  25. Scan type                   : Progressive
  26. Bits/(Pixel*Frame)          : 0.052
  27. Stream size                 : 1.71 GiB (98%)
  28. Writing library             : vtc-test
  29. Default                     : Yes
  30. Forced                      : No
  31. Color range                 : Limited
  32. Color primaries             : BT.709
  33. Transfer characteristics    : BT.709
  34. Matrix coefficients         : BT.709


  35. Audio
  36. ID                          : 2
  37. Format                      : AAC
  38. Format/Info                 : Advanced Audio Codec
  39. Format profile              : HE-AAC / LC
  40. Codec ID                    : A_AAC
  41. Duration                    : 1 h 30 min
  42. Bit rate                    : 64.0 kb/s
  43. Channel(s)                  : 2 channels
  44. Channel positions           : Front: L R
  45. Sampling rate               : 44.1 kHz / 22.05 kHz
  46. Frame rate                  : 21.533 FPS (1024 spf)
  47. Compression mode            : Lossy
  48. Stream size                 : 41.6 MiB (2%)
  49. Language                    : Chinese
  50. Default                     : Yes
  51. Forced                      : No
复制代码

游客,如果您要查看本帖隐藏内容请回复,如不想回复请点击赞助VIP贵宾:https://item.taobao.com/item.htm?id=540849877691
回复

使用道具 举报

1

主题

1

好友

2万

积分

superstar

Rank: 9Rank: 9Rank: 9

UID
240611
主题
1
金钱
10679
高清币
2095
鲜花
0
阅读权限
90
QQ
QQ
最后登录
2017-3-26
发表于 2016-12-21 18:18:30 |显示全部楼层
每天都来中国高清论坛看看有什么电影!
回复

使用道具 举报

0

主题

0

好友

1582

积分

人气偶像

Rank: 3Rank: 3

UID
163833
主题
0
金钱
1145
高清币
2
鲜花
0
阅读权限
30
QQ
QQ
最后登录
2017-3-26
发表于 2016-12-21 18:19:38 |显示全部楼层
中国高清论坛很棒!
回复

使用道具 举报

0

主题

0

好友

1582

积分

人气偶像

Rank: 3Rank: 3

UID
163833
主题
0
金钱
1145
高清币
2
鲜花
0
阅读权限
30
QQ
QQ
最后登录
2017-3-26
发表于 2016-12-21 18:20:11 |显示全部楼层
既然你诚信诚意的推荐了,那我就勉为其难的看看吧!
回复

使用道具 举报

1

主题

0

好友

7017

积分

金鸡奖主角

Rank: 5Rank: 5

UID
694345
主题
1
金钱
2412
高清币
1249
鲜花
0
阅读权限
70
QQ
QQ
最后登录
2017-3-26
发表于 2016-12-21 18:20:48 |显示全部楼层
中国高清论坛很棒!
回复

使用道具 举报

0

主题

0

好友

2251

积分

人气偶像

Rank: 3Rank: 3

UID
51962
主题
0
金钱
2038
高清币
0
鲜花
0
阅读权限
30
QQ
QQ
最后登录
2016-12-21
发表于 2016-12-21 18:23:32 |显示全部楼层
终于被我发现,这个我喜欢啊
回复

使用道具 举报

1

主题

0

好友

3043

积分

天王巨星

Rank: 4

UID
741683
主题
1
金钱
1223
高清币
381
鲜花
0
阅读权限
50
QQ
QQ
最后登录
2017-2-27
发表于 2016-12-21 18:30:30 |显示全部楼层
hhhhhhhhhhhhhhhhhhhh
回复

使用道具 举报

0

主题

0

好友

8691

积分

金鸡奖主角

Rank: 5Rank: 5

UID
129401
主题
0
金钱
3943
高清币
1040
鲜花
0
阅读权限
70
QQ
QQ
最后登录
2017-3-26
发表于 2016-12-21 18:32:41 |显示全部楼层
每天都来中国高清论坛看看有什么电影!
回复

使用道具 举报

0

主题

0

好友

2887

积分

人气偶像

Rank: 3Rank: 3

UID
33700
主题
0
金钱
2410
高清币
8
鲜花
0
阅读权限
30
QQ
QQ
最后登录
2017-3-26
发表于 2016-12-21 18:33:12 |显示全部楼层
感谢楼主分享精彩电影!
回复

使用道具 举报

0

主题

0

好友

1万

积分

超级明星

Rank: 7Rank: 7Rank: 7

UID
578685
主题
0
金钱
4325
高清币
2306
鲜花
0
阅读权限
90
QQ
QQ
最后登录
2017-3-26
发表于 2016-12-21 18:39:10 |显示全部楼层
中国高清论坛很棒!
回复

使用道具 举报

期待您加入中国高清论坛QQ交流11群:134327192
 懒得打字嘛,点击右侧快捷回复【左侧自定义内容】  【右侧自定义内容】
您需要登录后才可以回帖 登录 | 立即注册

回顶部