请选择 进入手机版 | 继续访问电脑版

中国高清论坛

11
 找回密码
 立即注册

QQ登录

只需一步,快速开始

查看: 3077|回复: 483

[喜剧片] 犯罪大师/笨贼乐盗家(台)/最爆盗贼团(港) Masterminds.2016.1080p.BluRay.x264.DTS-HDChina 7.95 GiB

  [复制链接]

8345

主题

0

好友

4万

积分

区域版主

Rank: 8Rank: 8

UID
13244
主题
8345
金钱
19980
高清币
8225
鲜花
-89
阅读权限
100
QQ
QQ
最后登录
2017-5-24
发表于 2017-1-11 20:46:57 |显示全部楼层
本帖最后由 jinggangshi 于 2017-1-11 23:16 编辑



◎译  名 犯罪大师/笨贼乐盗家(台)/最爆盗贼团(港)
◎片  名 Masterminds
◎年  代 2016
◎国  家 美国
◎类  别 喜剧/动作/犯罪
◎语  言 英语
◎字  幕 英文
◎IMDb评分  5.8/10 from 3,812 users
◎IMDb链接  http://www.imdb.com/title/tt2461150
◎文件格式 x264 + DTS
◎视频尺寸 1920x1080
◎文件大小 1CD 7.95 GiB
◎片  长 1h 34mn
◎导  演 杰瑞德·赫斯 Jared Hess
◎主  演 克里斯汀·韦格 Kristen Wiig
      欧文·威尔逊 Owen Wilson
      杰森·苏戴奇斯 Jason Sudeikis
      凯特·麦克金农 Kate McKinnon
      扎克·加利凡纳基斯 Zach Galifianakis
      肯·马里诺 Ken Marino
      乔恩·戴利 Jon Daly
      Devin Ratray
      罗达·格里菲丝 Rhoda Griffis
      Danny Comden
      马特·科博伊 Matt Corboy


◎简  介


  影片根据真实事件改编。扎克扮演的大卫是个简单的人,生活乏善可陈。他是一个运钞车司机,虽然每天运送数不清的钱,可那都是别人的钱。唯一让他高兴的便是见到美貌的女同事凯利(克里斯汀·韦格饰),而也正是凯利,将他卷进了一桩改变人生的大事件。

  虽然合作的是一群超级不靠谱的劫匪,领头的是超级不靠谱的史蒂夫(欧文·威尔逊饰),抢劫计划也是漏洞百出,可大卫真的完成了不可能完成的任务,偷走了1700万美元现金。唯一的问题便是,他把这些钱交给了这群各怀鬼胎,互相出卖,背后捅刀的劫匪们,自己却成了指定的替罪羊。

  如今成了逃犯的大卫,必须躲避追捕,从一个欢乐无比的杀手(杰森·苏戴奇斯饰)枪口逃生,并想方设法让这群陷害他的人付出应有的代价。
  1. Complete name : Masterminds.2016.1080p.BluRay.x264.DTS-HDChina[PRiME].mkv
  2. Format : Matroska
  3. Format version : Version 2
  4. File size : 7.95 GiB
  5. Duration : 1 h 34 min
  6. Overall bit rate : 12.0 Mb/s
  7. Movie name : Masterminds 2016 720p BluRay x264 DTS-HDChina
  8. Encoded date : UTC 2017-01-11 05:32:39
  9. Writing application : mkvmerge v5.8.0 (\'No Sleep / Pillow\') built on Sep 2 2012 15:37:04
  10. Writing library : libebml v1.2.3 + libmatroska v1.3.0

  11. Video
  12. ID : 1
  13. Format : AVC
  14. Format/Info : Advanced Video Codec
  15. Format profile : High@L4.1
  16. Format settings, CABAC : Yes
  17. Format settings, ReFrames : 4 frames
  18. Muxing mode : Header stripping
  19. Codec ID : V_MPEG4/ISO/AVC
  20. Duration : 1 h 34 min
  21. Bit rate : 10.5 Mb/s
  22. Width : 1 920 pixels
  23. Height : 1 080 pixels
  24. Display aspect ratio : 16:9
  25. Frame rate mode : Constant
  26. Frame rate : 23.976 (24000/1001) FPS
  27. Color space : YUV
  28. Chroma subsampling : 4:2:0
  29. Bit depth : 8 bits
  30. Scan type : Progressive
  31. Bits/(Pixel*Frame) : 0.211
  32. Stream size : 6.79 GiB (85%)
  33. Title : Medusa @ HDChina
  34. Writing library : x264 core 148 r2665kMod a01e339
  35. Encoding settings : cabac=1 / ref=4 / deblock=1:-3:-3 / analyse=0x3:0x133 / me=umh / subme=11 / psy=1 / fade_compensate=0.00 / psy_rd=0.85:0.00 / mixed_ref=1 / me_range=48 / chroma_me=1 / trellis=2 / 8x8dct=1 / cqm=0 / deadzone=21,11 / fast_pskip=0 / chroma_qp_offset=-2 / threads=24 / lookahead_threads=4 / sliced_threads=0 / nr=0 / decimate=0 / interlaced=0 / bluray_compat=0 / constrained_intra=0 / fgo=0 / bframes=8 / b_pyramid=2 / b_adapt=2 / b_bias=0 / direct=3 / weightb=1 / open_gop=0 / weightp=2 / keyint=240 / keyint_min=24 / scenecut=40 / intra_refresh=0 / rc=2pass / mbtree=0 / bitrate=10500 / ratetol=1.0 / qcomp=0.70 / qpmin=0 / qpmax=69 / qpstep=4 / cplxblur=20.0 / qblur=0.5 / ip_ratio=1.20 / pb_ratio=1.20 / aq=3:0.80
  36. Language : English
  37. Default : Yes
  38. Forced : No

  39. Audio
  40. ID : 2
  41. Format : DTS
  42. Format/Info : Digital Theater Systems
  43. Mode : 16
  44. Format settings, Endianness : Big
  45. Muxing mode : Header stripping
  46. Codec ID : A_DTS
  47. Duration : 1 h 34 min
  48. Bit rate mode : Constant
  49. Bit rate : 1 509 kb/s
  50. Channel(s) : 6 channels
  51. Channel positions : Front: L C R, Side: L R, LFE
  52. Sampling rate : 48.0 kHz
  53. Frame rate : 93.750 FPS (512 spf)
  54. Bit depth : 24 bits
  55. Compression mode : Lossy
  56. Stream size : 1 022 MiB (13%)
  57. Language : English
  58. Default : Yes
  59. Forced : No

  60. Text
  61. ID : 3
  62. Format : PGS
  63. Muxing mode : zlib
  64. Codec ID : S_HDMV/PGS
  65. Codec ID/Info : Picture based subtitle format used on BDs/HD-DVDs
  66. Language : English
  67. Default : Yes
  68. Forced : No

  69. Menu
  70. 00:00:00.000 : en:00:00:00.000
  71. 00:06:37.188 : en:00:06:37.188
  72. 00:10:15.240 : en:00:10:15.240
  73. 00:16:56.432 : en:00:16:56.432
  74. 00:28:08.353 : en:00:28:08.353
  75. 00:31:30.138 : en:00:31:30.138
  76. 00:37:39.716 : en:00:37:39.716
  77. 00:45:28.476 : en:00:45:28.476
  78. 00:50:03.167 : en:00:50:03.167
  79. 00:57:30.906 : en:00:57:30.906
  80. 01:02:59.609 : en:01:02:59.609
  81. 01:07:59.158 : en:01:07:59.158
  82. 01:14:12.782 : en:01:14:12.782
  83. 01:20:20.024 : en:01:20:20.024
  84. 01:23:22.581 : en:01:23:22.581
  85. 01:27:25.657 : en:01:27:25.657

复制代码
游客,如果您要查看本帖隐藏内容请回复,如不想回复请点击赞助VIP贵宾:https://item.taobao.com/item.htm?id=540849877691
回复

使用道具 举报

0

主题

0

好友

3万

积分

永恒神话

Rank: 10Rank: 10Rank: 10

UID
116520
主题
0
金钱
12074
高清币
5506
鲜花
0
阅读权限
90
QQ
QQ
最后登录
2017-5-23
发表于 2017-1-11 20:48:44 |显示全部楼层
每天都来中国高清论坛看看有什么电影!
回复

使用道具 举报

3

主题

0

好友

5万

积分

永恒神话

Rank: 10Rank: 10Rank: 10

UID
344678
主题
3
金钱
17294
高清币
9694
鲜花
0
阅读权限
90
QQ
QQ
最后登录
2017-2-27
发表于 2017-1-11 20:50:04 |显示全部楼层
感谢楼主分享!
回复

使用道具 举报

0

主题

0

好友

1588

积分

人气偶像

Rank: 3Rank: 3

UID
560622
主题
0
金钱
934
高清币
27
鲜花
0
阅读权限
30
QQ
QQ
最后登录
2017-5-16
发表于 2017-1-11 20:52:23 |显示全部楼层
感谢楼主分享精彩电影!
回复

使用道具 举报

0

主题

0

好友

1万

积分

影坛巨星

Rank: 8Rank: 8

UID
390651
主题
0
金钱
9278
高清币
595
鲜花
0
阅读权限
90
QQ
QQ
最后登录
2017-3-6
发表于 2017-1-11 20:52:56 |显示全部楼层
楼主分享的高清电影太好了!
回复

使用道具 举报

0

主题

0

好友

6325

积分

金鸡奖主角

Rank: 5Rank: 5

UID
356467
主题
0
金钱
3657
高清币
353
鲜花
0
阅读权限
70
QQ
QQ
最后登录
2017-5-23
发表于 2017-1-11 20:52:56 |显示全部楼层
中国高清论坛很棒!
回复

使用道具 举报

0

主题

0

好友

8344

积分

金鸡奖主角

Rank: 5Rank: 5

UID
376310
主题
0
金钱
4875
高清币
0
鲜花
0
阅读权限
70
QQ
QQ
最后登录
2017-5-23
发表于 2017-1-11 20:56:28 |显示全部楼层
每天都来中国高清论坛看看有什么电影!
回复

使用道具 举报

0

主题

0

好友

8344

积分

金鸡奖主角

Rank: 5Rank: 5

UID
376310
主题
0
金钱
4875
高清币
0
鲜花
0
阅读权限
70
QQ
QQ
最后登录
2017-5-23
发表于 2017-1-11 20:56:48 |显示全部楼层
都来中国高清论坛看看有什么电影!
回复

使用道具 举报

0

主题

0

好友

2457

积分

人气偶像

Rank: 3Rank: 3

UID
489384
主题
0
金钱
1457
高清币
91
鲜花
0
阅读权限
30
QQ
QQ
最后登录
2017-5-21
发表于 2017-1-11 20:58:40 |显示全部楼层
谢谢楼主分享
回复

使用道具 举报

1

主题

0

好友

6581

积分

金鸡奖主角

Rank: 5Rank: 5

UID
417962
主题
1
金钱
4108
高清币
0
鲜花
0
阅读权限
70
QQ
QQ
最后登录
2017-5-24
发表于 2017-1-11 20:59:01 |显示全部楼层
每天都来中国高清论坛看看有什么电影!
回复

使用道具 举报

期待您加入中国高清论坛QQ交流3群:101032372
 懒得打字嘛,点击右侧快捷回复【左侧自定义内容】  【右侧自定义内容】
您需要登录后才可以回帖 登录 | 立即注册