请选择 进入手机版 | 继续访问电脑版

中国高清论坛

11
 找回密码
 立即注册

QQ登录

只需一步,快速开始

查看: 3170|回复: 510

[爱情片] 一树梨花压海棠.Lolita.1997.US.BluRay.1920x1040p.x264.DTS-KOOK.[中英双字]

  [复制链接]

78

主题

3

好友

1万

积分

BT发布组

Rank: 8Rank: 8

UID
747690
主题
78
金钱
406
高清币
6506
鲜花
0
阅读权限
150
QQ
QQ
最后登录
2017-3-29
发表于 2017-1-11 22:42:46 |显示全部楼层
蓝光.jpg


※※※※※※※ 影片信息 ※※※※※※※

◎片   名 Lolita
◎译   名 一树梨花压海棠/洛丽塔 / 禁忌情迷 / 萝莉塔
◎年   代 1997
◎国   家 美国 / 法国
◎类   别 剧情 / 爱情 / 情色
◎语   言 英语
◎上映日 期 1997-09-27
◎字   幕 中英双字/简体字幕/繁体字幕/英文字幕
◎IMDB 评分  6.9/10 from 38,726 users
◎豆瓣 评分  8.0/10 from 74,054 users
◎视频尺 寸  1920x1040p
◎片   长 137 mins
◎导   演 阿德里安·莱恩
◎编     剧  Stephen Schiff / 弗拉基米尔·纳博科夫
◎主   演 杰瑞米·艾恩斯 / 梅兰尼·格里菲斯 / 弗兰克·兰格拉 / 多米尼克·斯万 / Suzanne Shepherd




◎简  介
  大学教授韩拔(杰里米?艾恩斯 饰)年幼时经历了失去初恋女友之痛后,自此他对未成年少女有特殊的感情。
  一次他到了美国去,成为了寡妇夏洛特(梅勒尼?格利菲恩 饰)的房客,当他看到夏洛特年仅14岁的女儿洛丽塔(多米尼克?斯温 饰)时,他疯狂爱上了这个美丽的少女。事实上,夏洛特希望可以跟韩拔结婚,让自己与女儿都能有个依靠。同时为了能让自己能够留在洛丽塔身边,韩拔还是跟夏洛特结婚了。不久,夏洛特知道了丈夫对自己女儿的迷恋,愤怒出走时遇车祸身亡了。
  韩拔把在身在夏令营的洛丽塔接到身边,瞒着母亲去世的消息与她游历美国,而他们也展开了一段不伦恋。面对小妖女洛丽塔,韩拔百般顺从,但洛丽塔还是厌倦了他,密谋逃走……




片源:Lolita.1997.1080p.BluRay.X264-AMIABLE.mkv


General
Unique ID                      : 202409158433524441277895370970133174162 (0x984695FF2679932D96B432FF5DD01792)


Format                         : Matroska
Format version                 : Version 4 / Version 2
File size                      : 9.84 GiB
Duration                       : 2 h 17 min
Overall bit rate               : 10.2 Mb/s
Encoded date                   : UTC 2017-01-10 11:42:46
Writing application            : mkvmerge v9.4.2 ('So High') 64bit
Writing library                : libebml v1.3.4 + libmatroska v1.4.5

Video
ID                             : 1
Format                         : AVC
Format/Info                    : Advanced Video Codec
Format profile                 : High@L4.1
Format settings, CABAC         : Yes
Format settings, ReFrames      : 4 frames
Codec ID                       : V_MPEG4/ISO/AVC
Duration                       : 2 h 17 min
Bit rate                       : 9 464 kb/s
Width                          : 1 920 pixels
Height                         : 1 040 pixels
Display aspect ratio           : 1.85:1
Frame rate mode                : Constant
Frame rate                     : 24.000 FPS
Color space                    : YUV
Chroma subsampling             : 4:2:0
Bit depth                      : 8 bits
Scan type                      : Progressive
Bits/(Pixel*Frame)             : 0.197
Stream size                    : 9.10 GiB (92%)
Writing library                : x264 core 142 r2479 dd79a61
Encoding settings              : cabac=1 / ref=4 / deblock=1:-3:-3 /
Language                       : English
Default                        : Yes
Forced                         : No

Audio
ID                             : 2
Format                         : DTS
Format/Info                    : Digital Theater Systems
Mode                           : 16
Format settings, Endianness    : Big
Codec ID                       : A_DTS
Duration                       : 2 h 17 min
Bit rate mode                  : Constant
Bit rate                       : 768 kb/s
Channel(s)                     : 6 channels
Channel positions              : Front: L C R, Side: L R, LFE
Sampling rate                  : 48.0 kHz
Frame rate                     : 93.750 FPS (512 spf)
Bit depth                      : 24 bits
Compression mode               : Lossy
Stream size                    : 756 MiB (8%)
Language                       : English
Default                        : Yes
Forced                         : No

Text #1
ID                             : 3
Format                         : ASS
Codec ID                       : S_TEXT/ASS
Codec ID/Info                  : Advanced Sub Station Alpha
Duration                       : 2 h 12 min
Bit rate                       : 230 b/s
Count of elements              : 1214
Compression mode               : Lossless
Stream size                    : 224 KiB (0%)
Title                          : 中英字幕
Language                       : Chinese
Default                        : Yes
Forced                         : No

Text #2
ID                             : 4
Format                         : ASS
Codec ID                       : S_TEXT/ASS
Codec ID/Info                  : Advanced Sub Station Alpha
Duration                       : 2 h 12 min
Bit rate                       : 137 b/s
Count of elements              : 1214
Compression mode               : Lossless
Stream size                    : 133 KiB (0%)
Title                          : 简体字幕
Language                       : Chinese
Default                        : No
Forced                         : No

Text #3
ID                             : 5
Format                         : ASS
Codec ID                       : S_TEXT/ASS
Codec ID/Info                  : Advanced Sub Station Alpha
Duration                       : 2 h 12 min
Bit rate                       : 137 b/s
Count of elements              : 1214
Compression mode               : Lossless
Stream size                    : 133 KiB (0%)
Title                          : 繁体字幕
Language                       : Chinese
Default                        : No
Forced                         : No

Text #4
ID                             : 6
Format                         : ASS
Codec ID                       : S_TEXT/ASS
Codec ID/Info                  : Advanced Sub Station Alpha
Duration                       : 2 h 12 min
Bit rate                       : 129 b/s
Count of elements              : 1214
Compression mode               : Lossless
Stream size                    : 125 KiB (0%)
Title                          : 英文字幕
Language                       : English
Default                        : No
Forced                         : No
一树梨花压海棠.Lolita.1997.US.BluRay.1920x1040p.x264.DTS-KOOK.[中英双字].jpg



游客,本付费内容需要支付 2高清币 才能浏览   

免回复、免扣高清币、屏蔽广告点击此处开通VIP贵宾!

购买



回复

使用道具 举报

4

主题

0

好友

3433

积分

天王巨星

Rank: 4

UID
488583
主题
4
金钱
1474
高清币
607
鲜花
0
阅读权限
50
QQ
QQ
最后登录
2017-3-28
发表于 2017-1-11 22:46:37 |显示全部楼层
楼主分享的高清电影太好了!
回复

使用道具 举报

0

主题

0

好友

2031

积分

人气偶像

Rank: 3Rank: 3

UID
63826
主题
0
金钱
1560
高清币
1
鲜花
0
阅读权限
30
QQ
QQ
最后登录
2017-3-26
发表于 2017-1-11 22:48:08 |显示全部楼层
谢谢分享谢谢分享
回复

使用道具 举报

0

主题

0

好友

8502

积分

金鸡奖主角

Rank: 5Rank: 5

UID
375361
主题
0
金钱
4756
高清币
196
鲜花
0
阅读权限
70
QQ
QQ
最后登录
2017-3-25
发表于 2017-1-11 22:48:53 |显示全部楼层
楼主分享的高清电影太好了!
回复

使用道具 举报

1

主题

0

好友

11万

积分

永恒神话

Rank: 10Rank: 10Rank: 10

UID
179913
主题
1
金钱
34595
高清币
21156
鲜花
0
阅读权限
90
QQ
QQ
最后登录
2017-3-29
发表于 2017-1-11 22:48:59 |显示全部楼层

楼主分享的高清电影太好了!
回复

使用道具 举报

0

主题

0

好友

3606

积分

天王巨星

Rank: 4

UID
95554
主题
0
金钱
2430
高清币
59
鲜花
0
阅读权限
50
QQ
QQ
最后登录
2017-3-28
发表于 2017-1-11 22:49:45 |显示全部楼层
中国高清论坛很棒!
回复

使用道具 举报

0

主题

0

好友

5717

积分

金鸡奖主角

Rank: 5Rank: 5

UID
260808
主题
0
金钱
2925
高清币
438
鲜花
0
阅读权限
70
QQ
QQ
最后登录
2017-3-25
发表于 2017-1-11 22:52:54 |显示全部楼层
中国高清论坛很棒!
回复

使用道具 举报

0

主题

0

好友

2635

积分

人气偶像

Rank: 3Rank: 3

UID
89677
主题
0
金钱
1969
高清币
1
鲜花
0
阅读权限
30
QQ
QQ
最后登录
2017-3-28
发表于 2017-1-11 22:54:33 |显示全部楼层
感谢楼主分享精彩电影!
回复

使用道具 举报

0

主题

0

好友

1万

积分

影坛巨星

Rank: 8Rank: 8

UID
390651
主题
0
金钱
9283
高清币
600
鲜花
0
阅读权限
90
QQ
QQ
最后登录
2017-3-6
发表于 2017-1-11 22:58:13 |显示全部楼层
我看不错噢 谢谢楼主!
回复

使用道具 举报

0

主题

0

好友

557

积分

知名艺人

Rank: 2

UID
255745
主题
0
金钱
373
高清币
1
鲜花
0
阅读权限
20
QQ
QQ
最后登录
2017-3-28
发表于 2017-1-11 22:58:42 |显示全部楼层
看看吧……下来不错
回复

使用道具 举报

期待您加入中国高清论坛QQ交流11群:134327192
 懒得打字嘛,点击右侧快捷回复【左侧自定义内容】  【右侧自定义内容】
您需要登录后才可以回帖 登录 | 立即注册

回顶部