请选择 进入手机版 | 继续访问电脑版

中国高清论坛

 找回密码
 立即注册

QQ登录

只需一步,快速开始

查看: 4022|回复: 524

[爱情片] 快乐到死.Happy End.1999.KR.BluRay.1280x720p.x264.DTS-KOOK.[中英字幕]

  [复制链接]

63

主题

1

好友

6280

积分

BT发布组

Rank: 8Rank: 8

UID
747690
主题
63
金钱
298
高清币
2932
鲜花
0
阅读权限
150
QQ
QQ
最后登录
2017-2-26
发表于 2017-1-11 22:54:03 |显示全部楼层

正式海报 韩国.jpg

※※※※※※※ 影片信息 ※※※※※※※

◎片   名 ????
◎译   名 快乐到死/世纪末痴情剧 / Happy End
◎年   代 21999
◎国   家 韩国
◎类   别 剧情 / 爱情 / 情色
◎语   言 韩语
◎上映日 期 1999-12-11(韩国)
◎字   幕 简体字幕/繁体字幕/英文字幕
◎IMDB 评分  7.1/10 from 856 users
◎豆瓣 评分  6.7/10 from 8,133 users
◎视频尺 寸  1280x720p
◎片   长 99 mins
◎导   演 郑址宇
◎编     剧  郑址宇
◎主   演 全度妍 / 崔岷植 / 朱镇模 / 朱玄




◎简  介
  1999年的韩国经济萧条,银行职员民基(崔岷植 饰)被裁员而失业在家,每天无所事事的他都会以看小说度日。至于他的妻子宝罗(全度妍 饰)是一名英文幼儿园的校长,面对颓废在家的丈夫,她充满了厌恶之情。正好在这个时候,宝罗遇上了她的旧情人,两人旧情复燃。但宝罗并不想放弃家庭, 但周旋在家庭与情人之间的她十分辛苦。
  纸包不住火,丈夫民基还是发现了妻子的外遇,终于无法忍受的他杀死了妻子,并要将自己的死嫁祸给妻子的情人……



1999年        第19届韩国影评人协会奖最佳女主角        获奖        全度妍
第9届春史电影节最佳女主角        获奖        全度妍
2000年
          第37届韩国电影大钟奖最佳男配角        获奖        朱镇模
第21届韩国青龙电影奖最佳女演员        提名        全度妍
第21届韩国青龙电影奖最佳新人导演        提名        郑址宇
第45届亚太电影节最佳男演员        获奖        崔岷植
2002年        第21届香港电影金像奖最佳亚洲电影        提名        《快乐到死》



片源:Happy.End.1999.720p.BluRay.DTS.x264-HDS[PRiME].mkv


General
Unique ID                      : 231034624151987608358099580135259011340 (0xADCFA66BEF57A1C4B2D842A061A4790C)

Format                         : Matroska
Format version                 : Version 4 / Version 2
File size                      : 5.67 GiB
Duration                       : 1 h 39 min
Overall bit rate               : 8 142 kb/s
Movie name                     : Happy End 1999 720p BluRay DTS x264-HDS
Encoded date                   : UTC 2017-01-10 10:27:51
Writing application            : mkvmerge v9.4.2 ('So High') 64bit
Writing library                : libebml v1.3.4 + libmatroska v1.4.5

Video
ID                             : 1
Format                         : AVC
Format/Info                    : Advanced Video Codec
Format profile                 : High@L4.1
Format settings, CABAC         : Yes
Format settings, ReFrames      : 9 frames
Codec ID                       : V_MPEG4/ISO/AVC
Duration                       : 1 h 39 min
Bit rate                       : 6 626 kb/s
Width                          : 1 280 pixels
Height                         : 720 pixels
Display aspect ratio           : 16:9
Frame rate mode                : Constant
Frame rate                     : 23.976 (24000/1001) FPS
Color space                    : YUV
Chroma subsampling             : 4:2:0
Bit depth                      : 8 bits
Scan type                      : Progressive
Bits/(Pixel*Frame)             : 0.300
Stream size                    : 4.62 GiB (81%)
Title                          : panyping@HDS
Writing library                : x264 core 148 r2699+6+41 29a38aa Yuuki [8-bit@4:2:0 X86_64][GCC 5.3.0]
Encoding settings              : cabac=1 / ref=9 / deblock=1:-3:-3 /
Default                        : Yes
Forced                         : No

Audio
ID                             : 2
Format                         : DTS
Format/Info                    : Digital Theater Systems
Mode                           : 16
Format settings, Endianness    : Big
Codec ID                       : A_DTS
Duration                       : 1 h 39 min
Bit rate mode                  : Constant
Bit rate                       : 1 509 kb/s
Channel(s)                     : 6 channels
Channel positions              : Front: L C R, Side: L R, LFE
Sampling rate                  : 48.0 kHz
Frame rate                     : 93.750 FPS (512 spf)
Bit depth                      : 24 bits
Compression mode               : Lossy
Stream size                    : 1.05 GiB (19%)
Title                          : Korean
Language                       : Korean
Default                        : Yes
Forced                         : No

Text #1
ID                             : 3
Format                         : ASS
Codec ID                       : S_TEXT/ASS
Codec ID/Info                  : Advanced Sub Station Alpha
Duration                       : 1 h 38 min
Bit rate                       : 59 b/s
Count of elements              : 384
Compression mode               : Lossless
Stream size                    : 42.4 KiB (0%)
Title                          : 简体字幕
Language                       : Chinese
Default                        : Yes
Forced                         : No

Text #2
ID                             : 4
Format                         : ASS
Codec ID                       : S_TEXT/ASS
Codec ID/Info                  : Advanced Sub Station Alpha
Duration                       : 1 h 38 min
Bit rate                       : 59 b/s
Count of elements              : 384
Compression mode               : Lossless
Stream size                    : 42.4 KiB (0%)
Title                          : 繁体字幕
Default                        : No
Forced                         : No

Text #3
ID                             : 5
Format                         : PGS
Muxing mode                    : zlib
Codec ID                       : S_HDMV/PGS
Codec ID/Info                  : Picture based subtitle format used on BDs/HD-DVDs
Duration                       : 1 h 32 min
Bit rate                       : 4 526 b/s
Count of elements              : 822
Stream size                    : 3.00 MiB (0%)
Title                          : ENG
Language                       : English
Default                        : No
Forced                         : No

快乐到死.Happy End.1999.KR.BluRay.1280x720p.x264.DTS-KOOK.[中英字幕].jpg



游客,本付费内容需要支付 2高清币 才能浏览   

免回复、免扣高清币、屏蔽广告点击此处开通VIP贵宾!

购买

回复

使用道具 举报

0

主题

0

好友

1万

积分

好莱坞明星

Rank: 6Rank: 6

UID
125139
主题
0
金钱
5363
高清币
1777
鲜花
0
阅读权限
90
QQ
QQ
最后登录
2017-2-26
发表于 2017-1-11 23:03:48 |显示全部楼层
中国高清论坛很棒!

点评

赣地穷书生  1024最新地址:http://23.228.193.222/?id=lifan551991 请叫我雷锋~  发表于 2017-2-4 15:12
回复

使用道具 举报

0

主题

0

好友

1097

积分

人气偶像

Rank: 3Rank: 3

UID
763034
主题
0
金钱
418
高清币
220
鲜花
0
阅读权限
30
QQ
QQ
最后登录
2017-2-26
发表于 2017-1-11 23:03:56 |显示全部楼层
6666666666666
回复

使用道具 举报

0

主题

0

好友

1038

积分

人气偶像

Rank: 3Rank: 3

UID
669897
主题
0
金钱
694
高清币
4
鲜花
0
阅读权限
30
QQ
QQ
最后登录
2017-2-26
发表于 2017-1-11 23:16:16 |显示全部楼层
感谢楼主分享精彩电影!
回复

使用道具 举报

1

主题

0

好友

1945

积分

人气偶像

Rank: 3Rank: 3

UID
411650
主题
1
金钱
1157
高清币
8
鲜花
0
阅读权限
30
QQ
QQ
最后登录
2017-2-24
发表于 2017-1-11 23:35:03 |显示全部楼层
中国高清论坛很棒!
回复

使用道具 举报

0

主题

0

好友

8142

积分

金鸡奖主角

Rank: 5Rank: 5

UID
296975
主题
0
金钱
3843
高清币
1116
鲜花
0
阅读权限
70
QQ
QQ
最后登录
2017-2-26
发表于 2017-1-11 23:44:32 |显示全部楼层
感谢楼主分享
回复

使用道具 举报

0

主题

0

好友

477

积分

知名艺人

Rank: 2

UID
244566
主题
0
金钱
331
高清币
2
鲜花
0
阅读权限
20
QQ
QQ
最后登录
2017-2-16
发表于 2017-1-12 00:00:30 |显示全部楼层
的撒旦法萨达是倒萨大
回复

使用道具 举报

0

主题

4

好友

3516

积分

天王巨星

Rank: 4

UID
127384
主题
0
金钱
2719
高清币
158
鲜花
0
阅读权限
50
QQ
QQ
最后登录
2017-2-27
发表于 2017-1-12 00:04:18 |显示全部楼层
每天都来中国高清论坛看看有什么电影!
回复

使用道具 举报

0

主题

0

好友

5万

积分

永恒神话

Rank: 10Rank: 10Rank: 10

UID
742887
主题
0
金钱
15508
高清币
11638
鲜花
0
阅读权限
90
QQ
QQ
最后登录
2017-2-27

射手座 白羊座 金牛座 摩羯座

发表于 2017-1-12 00:11:29 |显示全部楼层
每天都来中国高清论坛看看有什么电影!
回复

使用道具 举报

0

主题

0

好友

5万

积分

永恒神话

Rank: 10Rank: 10Rank: 10

UID
742887
主题
0
金钱
15508
高清币
11638
鲜花
0
阅读权限
90
QQ
QQ
最后登录
2017-2-27

射手座 白羊座 金牛座 摩羯座

发表于 2017-1-12 00:11:46 |显示全部楼层
其实我一直觉得楼主的品味不错!呵呵!
回复

使用道具 举报

期待您加入中国高清论坛QQ交流7群:90967029
 懒得打字嘛,点击右侧快捷回复【左侧自定义内容】  【右侧自定义内容】
您需要登录后才可以回帖 登录 | 立即注册

回顶部