请选择 进入手机版 | 继续访问电脑版

中国高清论坛

 找回密码
 立即注册

QQ登录

只需一步,快速开始

查看: 1237|回复: 137

[剧情片] 山羊 Goat.2016.1080p.WEB-DL.DD.5.1.H.264-FGT 4.04 GiB

  [复制链接]

7804

主题

0

好友

4万

积分

区域版主

Rank: 8Rank: 8

UID
13244
主题
7804
金钱
18632
高清币
7697
鲜花
-99
阅读权限
100
QQ
QQ
最后登录
2017-2-24
发表于 2017-1-11 22:57:06 |显示全部楼层


导演: Andrew Neel
主演: 本·施耐泽 / 尼克·乔纳斯 / 詹姆斯·弗兰科 / 丹尼尔·弗莱厄蒂 / 维吉尼亚·加德纳
类型: 剧情
制片国家/地区: 美国
语言: 英语
片长: 96分钟
IMDb链接: tt4437216
简介:

  影片故事讲述19岁男孩(施耐泽)与弟弟(乔纳斯)一起进入大学校园,申请加入同一个兄弟会,展开惨烈竞争,兄弟情遭受考验。

  1. Video
  2. ID                                       : 1
  3. Format                                   : AVC
  4. Format/Info                              : Advanced Video Codec
  5. Format profile                           : High@L4
  6. Format settings, CABAC                   : Yes
  7. Format settings, ReFrames                : 4 frames
  8. Codec ID                                 : V_MPEG4/ISO/AVC
  9. Duration                                 : 1h 42mn
  10. Bit rate                                 : 5 151 Kbps
  11. Width                                    : 1 916 pixels
  12. Height                                   : 1 076 pixels
  13. Display aspect ratio                     : 16:9
  14. Frame rate mode                          : Constant
  15. Frame rate                               : 23.976 fps
  16. Color space                              : YUV
  17. Chroma subsampling                       : 4:2:0
  18. Bit depth                                : 8 bits
  19. Scan type                                : Progressive
  20. Bits/(Pixel*Frame)                       : 0.104
  21. Stream size                              : 3.69 GiB (91%)
  22. Title                                    : SadeceBluRay.comGoat.2016.1080p.WEB-DL.DD.5.1.H.264-FGT
  23. Language                                 : English
  24. Default                                  : Yes
  25. Forced                                   : No
  26. Color range                              : Limited
  27. Color primaries                          : BT.709
  28. Transfer characteristics                 : BT.709
  29. Matrix coefficients                      : BT.709

  30. Audio
  31. ID                                       : 2
  32. Format                                   : AC-3
  33. Format/Info                              : Audio Coding 3
  34. Mode extension                           : CM (complete main)
  35. Format settings, Endianness              : Big
  36. Codec ID                                 : A_AC3
  37. Duration                                 : 1h 42mn
  38. Bit rate mode                            : Constant
  39. Bit rate                                 : 384 Kbps
  40. Channel(s)                               : 6 channels
  41. Channel positions                        : Front: L C R, Side: L R, LFE
  42. Sampling rate                            : 48.0 KHz
  43. Frame rate                               : 31.250 fps (1536 spf)
  44. Compression mode                         : Lossy
  45. Stream size                              : 281 MiB (7%)
  46. Title                                    : Goat.2016.1080p.WEB-DL.DD.5.1.H.264-FGT
  47. Language                                 : English
  48. Default                                  : Yes
  49. Forced                                   : No

  50. Text
  51. ID                                       : 3
  52. Format                                   : UTF-8
  53. Codec ID                                 : S_TEXT/UTF8
  54. Codec ID/Info                            : UTF-8 Plain Text
  55. Language                                 : English
  56. Default                                  : Yes
  57. Forced                                   : No

  58. Menu
  59. 00:00:00.000                             : en:Chapter 1
  60. 00:07:06.000                             : en:Chapter 2
  61. 00:16:54.000                             : en:Chapter 3
  62. 00:26:44.000                             : en:Chapter 4
  63. 00:34:12.000                             : en:Chapter 5
  64. 00:42:42.000                             : en:Chapter 6
  65. 00:52:36.000                             : en:Chapter 7
  66. 01:01:24.000                             : en:Chapter 8
  67. 01:11:02.000                             : en:Chapter 9
  68. 01:19:35.000                             : en:Chapter 10
  69. 01:29:02.000                             : en:Chapter 11
  70. 01:37:30.000                             : en:Chapter 12
复制代码











游客,如果您要查看本帖隐藏内容请回复,如不想回复请点击赞助VIP贵宾:https://item.taobao.com/item.htm?id=540849877691
回复

使用道具 举报

无效楼层,该帖已经被删除

0

主题

0

好友

973

积分

知名艺人

Rank: 2

UID
765475
主题
0
金钱
482
高清币
64
鲜花
0
阅读权限
20
QQ
QQ
最后登录
2017-2-22
发表于 2017-1-11 23:04:29 |显示全部楼层
感谢楼主分享好资源
回复

使用道具 举报

0

主题

0

好友

1万

积分

好莱坞明星

Rank: 6Rank: 6

UID
125139
主题
0
金钱
5356
高清币
1776
鲜花
0
阅读权限
90
QQ
QQ
最后登录
2017-2-24
发表于 2017-1-11 23:05:37 |显示全部楼层
感谢楼主分享精彩电影!
回复

使用道具 举报

0

主题

0

好友

7239

积分

金鸡奖主角

Rank: 5Rank: 5

UID
178351
主题
0
金钱
4478
高清币
6
鲜花
0
阅读权限
70
QQ
QQ
最后登录
2017-2-22
发表于 2017-1-11 23:10:14 |显示全部楼层
中国高清论坛很棒!
回复

使用道具 举报

1

主题

0

好友

10万

积分

永恒神话

Rank: 10Rank: 10Rank: 10

UID
179913
主题
1
金钱
30963
高清币
19720
鲜花
0
阅读权限
90
QQ
QQ
最后登录
2017-2-24
发表于 2017-1-11 23:10:56 |显示全部楼层

楼主分享的高清电影太好了!
回复

使用道具 举报

0

主题

0

好友

7239

积分

金鸡奖主角

Rank: 5Rank: 5

UID
178351
主题
0
金钱
4478
高清币
6
鲜花
0
阅读权限
70
QQ
QQ
最后登录
2017-2-22
发表于 2017-1-11 23:14:29 |显示全部楼层
中国高清论坛很棒!
回复

使用道具 举报

1

主题

0

好友

4800

积分

天王巨星

Rank: 4

UID
482210
主题
1
金钱
2646
高清币
27
鲜花
0
阅读权限
50
QQ
QQ
最后登录
2017-2-18
发表于 2017-1-11 23:21:08 |显示全部楼层
感谢楼主分享精彩电影!
回复

使用道具 举报

1

主题

2

好友

1042

积分

人气偶像

Rank: 3Rank: 3

UID
50028
主题
1
金钱
733
高清币
22
鲜花
0
阅读权限
30
QQ
QQ
最后登录
2017-2-24
发表于 2017-1-11 23:29:16 |显示全部楼层
每天都来中国高清论坛看看有什么电影!
回复

使用道具 举报

0

主题

0

好友

2039

积分

人气偶像

Rank: 3Rank: 3

UID
529802
主题
0
金钱
876
高清币
257
鲜花
0
阅读权限
30
QQ
QQ
最后登录
2017-2-22
发表于 2017-1-11 23:30:27 |显示全部楼层
每天都来中国高清论坛看看有什么电影!
回复

使用道具 举报

期待您加入中国高清论坛QQ交流7群:90967029
 懒得打字嘛,点击右侧快捷回复【左侧自定义内容】  【右侧自定义内容】
您需要登录后才可以回帖 登录 | 立即注册

回顶部