请选择 进入手机版 | 继续访问电脑版

中国高清论坛

 找回密码
 立即注册

QQ登录

只需一步,快速开始

查看: 2055|回复: 409

[爱情片] 於宇同:无主之花.Lost Flower:Eo Woo-dong.2015.KR.HDRip.1280x720p.x264.AAC-KOOK.[韩语中字]

  [复制链接]

46

主题

0

好友

2564

积分

BT发布组

Rank: 8Rank: 8

UID
747690
主题
46
金钱
202
高清币
1134
鲜花
0
阅读权限
150
QQ
QQ
最后登录
2017-1-20
发表于 2017-1-11 22:57:56 |显示全部楼层
正式海报 韩国.jpg


※※※※※※※ 影片信息 ※※※※※※※

◎片   名 ???: ???? ?
◎译   名 於宇同:无主之花/Lost Flower: Eo Woo-dong
◎年   代 2015
◎国   家 韩国
◎类   别 爱情 / 古装/情色
◎语   言 韩语
◎上映日 期 2015-01-29(韩国)
◎字   幕 简体字幕/繁体字幕
◎IMDB 评分  6.5/10 from 16 users
◎豆瓣 评分  4.4/10 from 597 users
◎视频尺 寸  1920x1080p
◎片   长 101 mins
◎导   演 李洙成
◎编     剧  Lee Chang-gyoo
◎主   演 主演: Baek Do-bin / 宋恩彩




◎简  介
  朝鲜时代成宗时期的女诗人、作家及画家於于同遭遇婚姻不幸之后和多名男子有染而艳名远播,甚至连朝鲜的王都被诱惑,不符合当时社会的礼教规范,故有“妖妇”、“淫妇”、“恶女”、“色女”等别称。
  《於于同:无主之花》聚焦于她在被丈夫抛弃之后,抛弃贵族身份,用於于同的名字变身妓女,展开复仇的故事。而且还创造了一个假想人物木工,和於于同及其丈夫之间有着三角关系,同时也展现了朝鲜时代女性的隐秘生活。




片源:Eo_Woo_dong_Lost_Flower_HD.mp4

General
Unique ID                      : 199003580923906812934013149687228158111 (0x95B6B20FD67340278753D480407C509F)

Format                         : Matroska
Format version                 : Version 4 / Version 2
File size                      : 2.25 GiB
Duration                       : 1 h 41 min
Overall bit rate               : 3 170 kb/s
Encoded date                   : UTC 2017-01-10 08:28:12
Writing application            : mkvmerge v9.4.2 ('So High') 64bit
Writing library                : libebml v1.3.4 + libmatroska v1.4.5

Video
ID                             : 1
Format                         : AVC
Format/Info                    : Advanced Video Codec
Format profile                 : Baseline@L3
Format settings, CABAC         : No
Format settings, ReFrames      : 1 frame
Format settings, GOP           : M=1, N=30
Codec ID                       : V_MPEG4/ISO/AVC
Duration                       : 1 h 41 min
Bit rate                       : 3 000 kb/s
Width                          : 1 280 pixels
Height                         : 720 pixels
Display aspect ratio           : 16:9
Frame rate mode                : Constant
Frame rate                     : 29.970 (29970/1000) FPS
Color space                    : YUV
Chroma subsampling             : 4:2:0
Bit depth                      : 8 bits
Scan type                      : Progressive
Bits/(Pixel*Frame)             : 0.109
Stream size                    : 2.13 GiB (94%)
Writing library                : x264 core 116
Encoding settings              : cabac=0 / ref=1 / deblock=1:0:0 /
Default                        : Yes
Forced                         : No

Audio
ID                             : 2
Format                         : AAC
Format/Info                    : Advanced Audio Codec
Format profile                 : LC
Codec ID                       : A_AAC
Duration                       : 1 h 41 min
Bit rate                       : 172 kb/s
Channel(s)                     : 2 channels
Channel positions              : Front: L R
Sampling rate                  : 44.1 kHz
Frame rate                     : 43.066 FPS (1024 spf)
Compression mode               : Lossy
Stream size                    : 125 MiB (5%)
Language                       : Korean
Default                        : Yes
Forced                         : No

Text #1
ID                             : 3
Format                         : ASS
Codec ID                       : S_TEXT/ASS
Codec ID/Info                  : Advanced Sub Station Alpha
Duration                       : 1 h 39 min
Bit rate                       : 73 b/s
Count of elements              : 514
Compression mode               : Lossless
Stream size                    : 53.4 KiB (0%)
Title                          : 简体字幕
Language                       : Chinese
Default                        : Yes
Forced                         : No

Text #2
ID                             : 4
Format                         : ASS
Codec ID                       : S_TEXT/ASS
Codec ID/Info                  : Advanced Sub Station Alpha
Duration                       : 1 h 39 min
Bit rate                       : 73 b/s
Count of elements              : 514
Compression mode               : Lossless
Stream size                    : 53.4 KiB (0%)
Title                          : 繁体字幕
Language                       : Chinese
Default                        : No
Forced                         : No
於宇同:无主之花.Lost Flower:Eo Woo-dong.2015.KR.HDRip.1280x720p.x264.AAC-KOOK..jpg


游客,本付费内容需要支付 2高清币 才能浏览   

免回复、免扣高清币、屏蔽广告点击此处开通VIP贵宾!

购买

回复

使用道具 举报

0

主题

0

好友

1万

积分

好莱坞明星

Rank: 6Rank: 6

UID
125139
主题
0
金钱
5152
高清币
1729
鲜花
0
阅读权限
90
QQ
QQ
最后登录
2017-1-19
发表于 2017-1-11 23:02:26 |显示全部楼层
感谢楼主分享精彩电影!
回复

使用道具 举报

0

主题

0

好友

895

积分

知名艺人

Rank: 2

UID
763034
主题
0
金钱
300
高清币
195
鲜花
0
阅读权限
20
QQ
QQ
最后登录
2017-1-18
发表于 2017-1-11 23:04:51 |显示全部楼层
666666666666
回复

使用道具 举报

0

主题

0

好友

924

积分

知名艺人

Rank: 2

UID
669897
主题
0
金钱
600
高清币
12
鲜花
0
阅读权限
20
QQ
QQ
最后登录
2017-1-20
发表于 2017-1-11 23:15:33 |显示全部楼层
每天都来中国高清论坛看看有什么电影!
回复

使用道具 举报

0

主题

0

好友

2995

积分

人气偶像

Rank: 3Rank: 3

UID
39536
主题
0
金钱
1985
高清币
11
鲜花
0
阅读权限
30
QQ
QQ
最后登录
2017-1-18
发表于 2017-1-11 23:27:30 |显示全部楼层
我看不错噢 谢谢楼主!
回复

使用道具 举报

0

主题

0

好友

436

积分

知名艺人

Rank: 2

UID
687830
主题
0
金钱
218
高清币
33
鲜花
0
阅读权限
20
QQ
QQ
最后登录
2017-1-18
发表于 2017-1-11 23:30:33 |显示全部楼层
感谢楼主分享。。。。
回复

使用道具 举报

0

主题

0

好友

7878

积分

金鸡奖主角

Rank: 5Rank: 5

UID
296975
主题
0
金钱
3715
高清币
1076
鲜花
0
阅读权限
70
QQ
QQ
最后登录
2017-1-19
发表于 2017-1-11 23:45:00 |显示全部楼层
感谢楼主分享
回复

使用道具 举报

0

主题

0

好友

2505

积分

人气偶像

Rank: 3Rank: 3

UID
297794
主题
0
金钱
1885
高清币
59
鲜花
0
阅读权限
30
QQ
QQ
最后登录
2017-1-19
发表于 2017-1-11 23:45:27 |显示全部楼层
楼主分享的高清电影太好了!
回复

使用道具 举报

1

主题

0

好友

2921

积分

人气偶像

Rank: 3Rank: 3

UID
337533
主题
1
金钱
2306
高清币
21
鲜花
0
阅读权限
30
QQ
QQ
最后登录
2017-1-19
发表于 2017-1-11 23:48:50 |显示全部楼层
感谢楼主分享精彩电影!
回复

使用道具 举报

0

主题

0

好友

413

积分

知名艺人

Rank: 2

UID
244566
主题
0
金钱
293
高清币
0
鲜花
0
阅读权限
20
QQ
QQ
最后登录
2017-1-17
发表于 2017-1-11 23:59:45 |显示全部楼层
的撒旦飞洒发士大夫士大夫是的
回复

使用道具 举报

期待您加入中国高清论坛QQ交流1群:197652384
 懒得打字嘛,点击右侧快捷回复【左侧自定义内容】  【右侧自定义内容】
您需要登录后才可以回帖 登录 | 立即注册

回顶部