请选择 进入手机版 | 继续访问电脑版

中国高清论坛

11
 找回密码
 立即注册

QQ登录

只需一步,快速开始

查看: 4737|回复: 600

[动作片] 美少女特攻队.Sucker Punch.2011.US.BluRay.1280x534p.x264.DTS-KOOK.[中英双字].7.3G

  [复制链接]

79

主题

4

好友

1万

积分

BT发布组

Rank: 8Rank: 8

UID
747690
主题
79
金钱
408
高清币
6548
鲜花
0
阅读权限
150
QQ
QQ
最后登录
2017-3-29
发表于 2017-1-11 23:07:23 |显示全部楼层
正式海报 美国.jpg


※※※※※※※ 影片信息 ※※※※※※※
◎片   名 Sucker Punch
◎译   名 美少女特攻队/杀客同萌(台) / 天姬战(港) / 专扁衰仔 / 出其不意 / 美少女特工队 / 暴走萝莉(豆友译名)
◎年   代 2011
◎国   家 美国
◎类   别 动作 / 惊悚 / 奇幻
◎语   言 英语
◎字   幕 中英字幕/英文字幕/简繁中字
◎IMDB评分   
◎片   长 109mins
◎导   演 扎克·施奈德
◎主   演 艾米莉·布朗宁 / 杰米·钟 / 吉娜·马隆 / 凡妮莎·哈金斯 / 艾比·考尼什 /

◎简  介
  金发碧眼的洋娃娃(Emily Browning 饰)宛如一只时刻会受到惊吓的小鸟,这一天她被送进一家私人会所。该会所由蓝佬(Oscar Isaac 饰)掌控,他四处网罗妙龄女孩,并让葛斯基夫人(Carla Gugino 饰)教授她们舞蹈,旨在取悦那些腰缠万贯的富翁和手眼通天的政要。洋娃娃在此结识了小甜荳(Abbie Cornish 饰)、火箭女(Jena Malone 饰)、布女郎(Vanessa Hudgens 饰)、黑琥珀(Jamie Chung 饰)这4名好友。洋娃娃不愿沦为供人把玩的工具,她与朋友们商量从此逃走。逃亡计划需要4样工具:地图、打火机、刀和钥匙。朋友们负责盗取这些工具,而洋娃娃则用她那迷人且极具魔幻色彩的舞蹈吸引着蓝佬等人的注意力。
  只是终究也分不清,这是谁人的魔幻世界……



※※※※※※※ 参数信息 ※※※※※※※

片源:Sucker.Punch.2011.Blu-ray.720p.x264.-NiP.Rus.Ukr.Eng.mkv




General
Unique ID                      : 253540085934551228194712337500524752291 (0xBEBE0B5B33C95C70B1061FE9163FADA3)

Format                         : Matroska
Format version                 : Version 4 / Version 2
File size                      : 7.29 GiB
Duration                       : 1 h 49 min
Overall bit rate               : 9 505 kb/s
Movie name                     : HANSMER
Encoded date                   : UTC 2016-12-05 15:16:02
Writing application            : mkvmerge v9.4.2 ('So High') 64bit
Writing library                : libebml v1.3.4 + libmatroska v1.4.5

Video
ID                             : 1
Format                         : AVC
Format/Info                    : Advanced Video Codec
Format profile                 : High@L4.1
Format settings, CABAC         : Yes
Format settings, ReFrames      : 11 frames
Codec ID                       : V_MPEG4/ISO/AVC
Duration                       : 1 h 49 min
Bit rate                       : 8 000 kb/s
Width                          : 1 280 pixels
Height                         : 534 pixels
Display aspect ratio           : 2.40:1
Frame rate mode                : Constant
Frame rate                     : 23.976 (24000/1001) FPS
Color space                    : YUV
Chroma subsampling             : 4:2:0
Bit depth                      : 8 bits
Scan type                      : Progressive
Bits/(Pixel*Frame)             : 0.488
Stream size                    : 6.13 GiB (84%)
Writing library                : x264 core 116 r2019 9cc407d
Encoding settings              : cabac=1 / ref=11 / deblock=1:-3:-2 /
Language                       : English
Default                        : Yes
Forced                         : No
Color range                    : Limited
Matrix coefficients            : BT.709

Audio
ID                             : 2
Format                         : DTS
Format/Info                    : Digital Theater Systems
Mode                           : 16
Format settings, Endianness    : Big
Codec ID                       : A_DTS
Duration                       : 1 h 49 min
Bit rate mode                  : Constant
Bit rate                       : 1 509 kb/s
Channel(s)                     : 6 channels
Channel positions              : Front: L C R, Side: L R, LFE
Sampling rate                  : 48.0 kHz
Frame rate                     : 93.750 FPS (512 spf)
Bit depth                      : 24 bits
Compression mode               : Lossy
Stream size                    : 1.16 GiB (16%)
Language                       : English
Default                        : Yes
Forced                         : No

Text #1
ID                             : 3
Format                         : ASS
Codec ID                       : S_TEXT/ASS
Codec ID/Info                  : Advanced Sub Station Alpha
Duration                       : 1 h 44 min
Bit rate                       : 202 b/s
Count of elements              : 984
Compression mode               : Lossless
Stream size                    : 155 KiB (0%)
Title                          : 中英字幕
Language                       : Chinese
Default                        : Yes
Forced                         : No

Text #2
ID                             : 4
Format                         : UTF-8
Codec ID                       : S_TEXT/UTF8
Codec ID/Info                  : UTF-8 Plain Text
Duration                       : 1 h 44 min
Bit rate                       : 31 b/s
Count of elements              : 937
Stream size                    : 24.4 KiB (0%)
Title                          : 简体字幕
Language                       : Chinese
Default                        : No
Forced                         : No

Text #3
ID                             : 5
Format                         : UTF-8
Codec ID                       : S_TEXT/UTF8
Codec ID/Info                  : UTF-8 Plain Text
Duration                       : 1 h 44 min
Bit rate                       : 8 b/s
Count of elements              : 937
Stream size                    : 6.77 KiB (0%)
Title                          : 繁体字幕
Language                       : Chinese
Default                        : No
Forced                         : No

Text #4
ID                             : 6
Format                         : UTF-8
Codec ID                       : S_TEXT/UTF8
Codec ID/Info                  : UTF-8 Plain Text
Duration                       : 1 h 49 min
Bit rate                       : 37 b/s
Count of elements              : 1045
Stream size                    : 30.3 KiB (0%)
Title                          : 英文字幕
Language                       : English
Default                        : No
Forced                         : No

美少女特攻队.Sucker Punch.2011.US.BluRay.1280x534p.x264.DTS-KOOK.[中英双字].jpg



游客,本付费内容需要支付 2高清币 才能浏览   

免回复、免扣高清币、屏蔽广告点击此处开通VIP贵宾!

购买

回复

使用道具 举报

0

主题

0

好友

1200

积分

人气偶像

Rank: 3Rank: 3

UID
763034
主题
0
金钱
481
高清币
240
鲜花
0
阅读权限
30
QQ
QQ
最后登录
2017-3-20
发表于 2017-1-11 23:08:57 |显示全部楼层
66666666666
回复

使用道具 举报

0

主题

0

好友

710

积分

知名艺人

Rank: 2

UID
760547
主题
0
金钱
413
高清币
6
鲜花
0
阅读权限
20
QQ
QQ
最后登录
2017-3-29
发表于 2017-1-11 23:20:47 |显示全部楼层
每天都来中国高清论坛看看有什么电影!
回复

使用道具 举报

1

主题

0

好友

4984

积分

天王巨星

Rank: 4

UID
482210
主题
1
金钱
2746
高清币
29
鲜花
0
阅读权限
50
QQ
QQ
最后登录
2017-3-15
发表于 2017-1-11 23:20:48 |显示全部楼层
感谢楼主分享精彩电影!
回复

使用道具 举报

0

主题

0

好友

658

积分

知名艺人

Rank: 2

UID
687830
主题
0
金钱
380
高清币
15
鲜花
0
阅读权限
20
QQ
QQ
最后登录
2017-3-30
发表于 2017-1-11 23:29:24 |显示全部楼层
感谢楼主分享。。。。
回复

使用道具 举报

0

主题

0

好友

8208

积分

金鸡奖主角

Rank: 5Rank: 5

UID
296975
主题
0
金钱
3907
高清币
1112
鲜花
0
阅读权限
70
QQ
QQ
最后登录
2017-3-30
发表于 2017-1-11 23:46:09 |显示全部楼层
感谢楼主分享
回复

使用道具 举报

0

主题

0

好友

342

积分

知名艺人

Rank: 2

UID
770358
主题
0
金钱
214
高清币
24
鲜花
0
阅读权限
20
QQ
QQ
最后登录
2017-3-30
发表于 2017-1-11 23:49:23 |显示全部楼层
每天都来中国高清论坛看看有什么电影!
回复

使用道具 举报

1

主题

0

好友

3127

积分

天王巨星

Rank: 4

UID
337533
主题
1
金钱
2436
高清币
37
鲜花
0
阅读权限
50
QQ
QQ
最后登录
2017-3-5
发表于 2017-1-11 23:50:46 |显示全部楼层
中国高清论坛很棒!
回复

使用道具 举报

0

主题

0

好友

814

积分

知名艺人

Rank: 2

UID
724570
主题
0
金钱
508
高清币
28
鲜花
0
阅读权限
20
QQ
QQ
最后登录
2017-3-30
发表于 2017-1-11 23:54:45 |显示全部楼层
每天都来中国高清论坛看看有什么电影!
回复

使用道具 举报

0

主题

0

好友

555

积分

知名艺人

Rank: 2

UID
290393
主题
0
金钱
395
高清币
1
鲜花
0
阅读权限
20
QQ
QQ
最后登录
2017-3-30
发表于 2017-1-12 00:11:56 |显示全部楼层
感谢楼主分享精彩电影!
回复

使用道具 举报

期待您加入中国高清论坛QQ交流11群:134327192
 懒得打字嘛,点击右侧快捷回复【左侧自定义内容】  【右侧自定义内容】
您需要登录后才可以回帖 登录 | 立即注册

回顶部