请选择 进入手机版 | 继续访问电脑版

中国高清论坛

11
 找回密码
 立即注册

QQ登录

只需一步,快速开始

查看: 5132|回复: 967

[剧情片] 一条狗的使命/为了与你相遇(台) A.Dogs.Purpose.2017.1080p.WEB-DL.DD5.1.H264-FGT 3.46 GiB

  [复制链接]

8541

主题

0

好友

4万

积分

区域版主

Rank: 8Rank: 8

UID
13244
主题
8541
金钱
20462
高清币
8386
鲜花
-89
阅读权限
100
QQ
QQ
最后登录
2017-6-22
发表于 2017-4-18 12:46:05 |显示全部楼层
本帖最后由 jinggangshi 于 2017-4-18 19:14 编辑



◎译  名 一条狗的使命/为了与你相遇(台)
◎片  名 A Dog's Purpose
◎年  代 2017
◎国  家 美国
◎类  别 剧情/喜剧/冒险
◎语  言 英语
◎字  幕 英文
◎IMDb评分  5.4/10 from 14332 users
◎IMDB链接  http://www.imdb.com/title/tt1753383
◎文件格式 H264 + DD5.1
◎视频尺寸 1916x800
◎文件大小 3.46 GiB
◎片  长 1h 40mn
◎导  演 莱塞·霍尔斯道姆 Lasse Hallström
◎主  演 布丽特·罗伯森 Britt Robertson
      丹尼斯·奎德 Dennis Quaid
      佩吉·利普顿 Peggy Lipton
      乔什·加德 Josh Gad
      K·J·阿帕 K.J. Apa
      布莱斯·吉扎尔 Bryce Gheisar
      朱丽叶·瑞兰斯 Juliet Rylance
      卢克·科比  Luke Kirby
      加布里埃尔·罗斯 Gabrielle Rose
      迈克尔·博夫舍维尔 Michael Bofshever
      洛根·米勒 Logan Miller
      柯比·豪厄-尔巴普蒂斯特 Kirby Howell-Baptiste
      普奇·豪尔 Pooch Hall
      约翰·奥提兹 John Ortiz
      妮科尔·勒普拉卡 Nicole LaPlaca
      彼特·科拉米斯 Peter Kelamis
      卡罗琳·凯芙 Caroline Cave
      简·迈克格雷格 Jane McGregor
      科维西·阿梅扬 Kwesi Ameyaw
      卡琳·博姆拜克 Kalyn Bomback
      娜奥米·弗伦内特 Naomi Frenette

◎简  介

  影片以汪星人的视角展现狗狗和人类的微妙情感,一只狗狗陪伴小主人长大成人,甚至为他追到了女朋友,后来它年迈死去又转世投胎变成其他性别和类型的汪,第二次轮回狗狗变成了警犬威风凛凛,再次转轮回,又成了陪伴一位单身女青年的小柯基犬。在经历了多次轮回之后,最终回到最初的主人身边。
  1. Video
  2. ID                                       : 1
  3. Format                                   : AVC
  4. Format/Info                              : Advanced Video Codec
  5. Format profile                           : High@L4
  6. Format settings, CABAC                   : Yes
  7. Format settings, ReFrames                : 5 frames
  8. Codec ID                                 : V_MPEG4/ISO/AVC
  9. Duration                                 : 1h 40mn
  10. Bit rate                                 : 4 467 Kbps
  11. Width                                    : 1 916 pixels
  12. Height                                   : 800 pixels
  13. Display aspect ratio                     : 2.40:1
  14. Frame rate mode                          : Constant
  15. Frame rate                               : 23.976 (24000/1001) fps
  16. Color space                              : YUV
  17. Chroma subsampling                       : 4:2:0
  18. Bit depth                                : 8 bits
  19. Scan type                                : Progressive
  20. Bits/(Pixel*Frame)                       : 0.122
  21. Stream size                              : 3.12 GiB (90%)
  22. Title                                    : A.Dogs.Purpose.2017.1080p.WEB-DL.DD5.1.H264-FGT
  23. Language                                 : English
  24. Default                                  : Yes
  25. Forced                                   : No
  26. Color range                              : Limited
  27. Color primaries                          : BT.709
  28. Transfer characteristics                 : BT.709
  29. Matrix coefficients                      : BT.709

  30. Audio
  31. ID                                       : 2
  32. Format                                   : AC-3
  33. Format/Info                              : Audio Coding 3
  34. Mode extension                           : CM (complete main)
  35. Format settings, Endianness              : Big
  36. Codec ID                                 : A_AC3
  37. Duration                                 : 1h 40mn
  38. Bit rate mode                            : Constant
  39. Bit rate                                 : 384 Kbps
  40. Channel(s)                               : 6 channels
  41. Channel positions                        : Front: L C R, Side: L R, LFE
  42. Sampling rate                            : 48.0 KHz
  43. Frame rate                               : 31.250 fps (1536 spf)
  44. Compression mode                         : Lossy
  45. Stream size                              : 275 MiB (8%)
  46. Title                                    : A.Dogs.Purpose.2017.1080p.WEB-DL.DD5.1.H264-FGT
  47. Language                                 : English
  48. Default                                  : Yes
  49. Forced                                   : No

  50. Text
  51. ID                                       : 3
  52. Format                                   : UTF-8
  53. Codec ID                                 : S_TEXT/UTF8
  54. Codec ID/Info                            : UTF-8 Plain Text
  55. Language                                 : English
  56. Default                                  : Yes
  57. Forced                                   : No

  58. Menu
  59. 00:00:00.000                             : en:1
  60. 00:04:40.780                             : en:2
  61. 00:08:55.409                             : en:3
  62. 00:14:11.308                             : en:4
  63. 00:17:47.482                             : en:5
  64. 00:22:39.607                             : en:6
  65. 00:28:34.003                             : en:7
  66. 00:33:46.482                             : en:8
  67. 00:37:27.703                             : en:9
  68. 00:42:17.117                             : en:10
  69. 00:48:32.534                             : en:11
  70. 00:51:25.248                             : en:12
  71. 00:56:05.736                             : en:13
  72. 01:01:13.668                             : en:14
  73. 01:05:41.310                             : en:15
  74. 01:12:04.067                             : en:16
  75. 01:16:25.495                             : en:17
  76. 01:21:08.986                             : en:18
  77. 01:27:58.937                             : en:19
  78. 01:33:41.613                             : en:20
复制代码











游客,如果您要查看本帖隐藏内容请回复,如不想回复请点击赞助VIP贵宾:https://item.taobao.com/item.htm?id=540849877691
回复

使用道具 举报

0

主题

1

好友

1万

积分

好莱坞明星

今晚我听你的爱我就给我

Rank: 6Rank: 6

UID
807472
主题
0
金钱
3200
高清币
2856
鲜花
0
阅读权限
90
QQ
QQ
最后登录
2017-6-21
发表于 2017-4-18 12:46:48 |显示全部楼层
又有新片啦...謝謝樓主~~
回复

使用道具 举报

0

主题

0

好友

1156

积分

人气偶像

Rank: 3Rank: 3

UID
94476
主题
0
金钱
818
高清币
2
鲜花
0
阅读权限
30
最后登录
2017-6-18
发表于 2017-4-18 12:50:22 |显示全部楼层
每天都来中国高清论坛看看有什么电影!
回复

使用道具 举报

0

主题

0

好友

284

积分

知名艺人

Rank: 2

UID
763765
主题
0
金钱
157
高清币
7
鲜花
0
阅读权限
20
QQ
QQ
最后登录
2017-6-21
发表于 2017-4-18 12:57:50 |显示全部楼层
特别喜欢这个电影,谢谢分享。
回复

使用道具 举报

0

主题

0

好友

6

积分

跑龙套

Rank: 1

UID
826732
主题
0
金钱
3
高清币
1
鲜花
0
阅读权限
10
QQ
QQ
最后登录
2017-4-18
发表于 2017-4-18 12:59:31 |显示全部楼层
哈哈😄😄😄😄😄😄😄😄
回复

使用道具 举报

0

主题

0

好友

814

积分

知名艺人

Rank: 2

UID
799642
主题
0
金钱
360
高清币
129
鲜花
0
阅读权限
20
QQ
QQ
最后登录
2017-6-21
发表于 2017-4-18 13:01:04 |显示全部楼层
中国高清论坛很棒!
回复

使用道具 举报

0

主题

0

好友

232

积分

知名艺人

Rank: 2

UID
579325
主题
0
金钱
172
高清币
2
鲜花
0
阅读权限
20
QQ
QQ
最后登录
2017-6-18
发表于 2017-4-18 13:02:58 |显示全部楼层
每天都来中国高清论坛看看有什么电影!
回复

使用道具 举报

0

主题

0

好友

280

积分

知名艺人

Rank: 2

UID
796760
主题
0
金钱
169
高清币
0
鲜花
0
阅读权限
20
QQ
QQ
最后登录
2017-6-13
发表于 2017-4-18 13:03:23 |显示全部楼层
每天都来中国高清论坛看看有什么电影!
回复

使用道具 举报

0

主题

0

好友

3137

积分

天王巨星

Rank: 4

UID
492060
主题
0
金钱
1869
高清币
1
鲜花
0
阅读权限
50
QQ
QQ
最后登录
2017-6-22
发表于 2017-4-18 13:05:34 |显示全部楼层
每天都来中国高清论坛看看有什么电影!
回复

使用道具 举报

0

主题

0

好友

3137

积分

天王巨星

Rank: 4

UID
492060
主题
0
金钱
1869
高清币
1
鲜花
0
阅读权限
50
QQ
QQ
最后登录
2017-6-22
发表于 2017-4-18 13:05:51 |显示全部楼层
特别喜欢这个电影,谢谢分享。。。。
回复

使用道具 举报

期待您加入中国高清论坛QQ交流3群:101032372
 懒得打字嘛,点击右侧快捷回复【左侧自定义内容】  【右侧自定义内容】
您需要登录后才可以回帖 登录 | 立即注册