请选择 进入手机版 | 继续访问电脑版

中国高清论坛

 找回密码
 立即注册
查看: 10118|回复: 1893

[动作片] 上海王 [4k&1080p双版本/普通话/内嵌中英字幕] Lord.of.Shanghai.2016.4k&1080p.WEB-DL.x264.AAC-HQC 4.54 GiB & 2.33 GiB

  [复制链接]

9026

主题

0

好友

4万

积分

区域版主

Rank: 8Rank: 8

UID
13244
主题
9026
金钱
21583
高清币
8871
鲜花
-89
阅读权限
100
QQ
QQ
最后登录
2017-8-24
发表于 2017-4-20 00:19:16 |显示全部楼层


◎译  名 上海王
◎片  名 LordofShanghai
◎年  代 2016
◎国  家 中国
◎类  别 动作/犯罪/爱情
◎语  言 普通话
◎字  幕 简体中文/英文
◎IMDb评分  5.6/10 from 8 users
◎IMDB链接  http://www.imdb.com/title/tt5482570/
◎文件格式 x264 + AAC
◎视频尺寸 3840 x 1608 & 1920 x 808
◎文件大小 4.54 GiB & 2.33 GiB
◎片  长 1h:47m
◎导  演 胡雪桦 Sherwood Hu
◎主  演 胡军 Jun Hu
      余男 Nan Yu
      凤小岳 Rhydian Vaughan
      秦昊 Hao Qin
      李梦 Meng Li
      刘佩琦 Peiqi Liu
      曹可凡 Kefan Cao
      蒲巴甲 Purba Rgyal
      多布杰 Duobujie
      乔翰·厄布 Johann Urb
      何赛飞 Saifei He
      徐冬冬 Dongdong Xu
      白灵 Ling Bai

◎简  介

  电影讲述了20世纪初上海滩十里洋场、黑帮势力的角逐纷争。纷杂乱世中,奇女子筱月桂(余男 饰)与三代上海王之间充满传奇色彩的爱恨情仇。

  在妓院做丫头的乡下女孩小月桂(李梦 饰),“个高、胸大、没裹脚”,让老板新黛玉(白灵 饰)很不满意,却深得洪门老大常力雄(胡军 饰)欢心,成为一代上海王的女人。常力雄在与同盟会代表黄佩玉(秦昊 饰)接触过程中被暗杀,小月桂孤助无援,产女后流落乡下。

  历经数年艰辛,小月桂成立滩簧班子,重返大上海,在第二代上海王黄佩玉帮助下,成为“申曲名伶”筱月桂(余男 饰)。功成名就的筱月桂从没忘记要寻找杀死常力雄,也就是她女儿父亲的凶手。当她发现自己爱上黄佩玉时,也证实了“洪门内奸的真正身份”。她与常爷的前跟班余其扬(凤小岳 饰)合谋除去内奸,助余其扬成为洪门第一个银行家,新的“上海王”。
  1. General
  2. Complete name                  : E:\迅雷下载\Lord.of.Shanghai.2016.4k&1080p.WEB-DL.x264.AAC-HQC\4K.mp4
  3. Format                         : MPEG-4
  4. Format profile                 : Base Media
  5. Codec ID                       : isom (isom/iso2/avc1/mp41)
  6. File size                      : 4.54 GiB
  7. Duration                       : 1 h 47 min
  8. Overall bit rate               : 6 055 kb/s
  9. Writing application            : Lavf57.25.100
  10. FileExtension_Invalid          : mov mp4 m4v m4a m4b m4p 3ga 3gpa 3gpp 3gp 3gpp2 3g2 k3g jpm jpx mqv ismv isma ismt f4a f4b f4v

  11. Video
  12. ID                             : 1
  13. Format                         : AVC
  14. Format/Info                    : Advanced Video Codec
  15. Format profile                 : High@L5.1
  16. Format settings, CABAC         : Yes
  17. Format settings, ReFrames      : 3 frames
  18. Codec ID                       : avc1
  19. Codec ID/Info                  : Advanced Video Coding
  20. Duration                       : 1 h 47 min
  21. Bit rate                       : 5 986 kb/s
  22. Width                          : 3 840 pixels
  23. Height                         : 1 608 pixels
  24. Display aspect ratio           : 2.40:1
  25. Frame rate mode                : Variable
  26. Frame rate                     : 25.000 FPS
  27. Minimum frame rate             : 18.519 FPS
  28. Maximum frame rate             : 16 000.000 FPS
  29. Color space                    : YUV
  30. Chroma subsampling             : 4:2:0
  31. Bit depth                      : 8 bits
  32. Scan type                      : Progressive
  33. Bits/(Pixel*Frame)             : 0.039
  34. Stream size                    : 4.48 GiB (99%)
  35. Writing library                : qiyi.com vtc-test
  36. Color range                    : Limited
  37. Color primaries                : BT.709
  38. Transfer characteristics       : BT.709
  39. Matrix coefficients            : BT.709

  40. Audio
  41. ID                             : 2
  42. Format                         : AAC
  43. Format/Info                    : Advanced Audio Codec
  44. Format profile                 : HE-AAC / LC
  45. Codec ID                       : 40
  46. Duration                       : 1 h 47 min
  47. Source duration                : 1 h 47 min
  48. Bit rate mode                  : Constant
  49. Bit rate                       : 62.8 kb/s
  50. Channel(s)                     : 2 channels
  51. Channel positions              : Front: L R
  52. Sampling rate                  : 44.1 kHz / 22.05 kHz
  53. Frame rate                     : 21.533 FPS (1024 spf)
  54. Compression mode               : Lossy
  55. Stream size                    : 48.2 MiB (1%)
  56. Source stream size             : 48.2 MiB (1%)
  57. Default                        : Yes
  58. Alternate group                : 1

复制代码
游客,如果您要查看本帖隐藏内容请回复,如不想回复请点击赞助VIP贵宾:https://item.taobao.com/item.htm?id=540849877691
回复

使用道具 举报

0

主题

1

好友

5476

积分

金鸡奖主角

Rank: 5Rank: 5

UID
609667
主题
0
金钱
2932
高清币
612
鲜花
0
阅读权限
70
QQ
QQ
最后登录
2017-8-21
发表于 2017-4-20 00:20:38 |显示全部楼层
我看不错噢 谢谢楼主!
回复

使用道具 举报

0

主题

0

好友

1万

积分

超级明星

Rank: 7Rank: 7Rank: 7

UID
116406
主题
0
金钱
8345
高清币
1681
鲜花
0
阅读权限
90
QQ
QQ
最后登录
2017-8-24
发表于 2017-4-20 00:24:14 |显示全部楼层
每天都来中国高清论坛看看有什么电影!
回复

使用道具 举报

0

主题

0

好友

1877

积分

人气偶像

Rank: 3Rank: 3

UID
694564
主题
0
金钱
1050
高清币
151
鲜花
0
阅读权限
30
QQ
QQ
最后登录
2017-8-24
发表于 2017-4-20 00:25:12 |显示全部楼层
谢谢啊谢谢
回复

使用道具 举报

0

主题

2

好友

7524

积分

金鸡奖主角

Rank: 5Rank: 5

UID
83123
主题
0
金钱
4920
高清币
336
鲜花
0
阅读权限
70
QQ
QQ
最后登录
2017-8-24
发表于 2017-4-20 00:26:27 |显示全部楼层
每天都来中国高清论坛看看有什么电影!
回复

使用道具 举报

0

主题

0

好友

7366

积分

金鸡奖主角

Rank: 5Rank: 5

UID
423247
主题
0
金钱
3222
高清币
1265
鲜花
0
阅读权限
70
QQ
QQ
最后登录
2017-8-24
发表于 2017-4-20 00:27:06 |显示全部楼层
Thanks for sharing
回复

使用道具 举报

0

主题

0

好友

1610

积分

人气偶像

Rank: 3Rank: 3

UID
809676
主题
0
金钱
583
高清币
296
鲜花
0
阅读权限
30
QQ
QQ
最后登录
2017-8-21
发表于 2017-4-20 00:27:25 |显示全部楼层
中国高清论坛很棒!
回复

使用道具 举报

0

主题

0

好友

3384

积分

天王巨星

Rank: 4

UID
127191
主题
0
金钱
2574
高清币
1
鲜花
0
阅读权限
50
QQ
QQ
最后登录
2017-8-9
发表于 2017-4-20 00:29:24 |显示全部楼层
起来支持一下啊
回复

使用道具 举报

0

主题

0

好友

2785

积分

人气偶像

Rank: 3Rank: 3

UID
184259
主题
0
金钱
1911
高清币
0
鲜花
0
阅读权限
30
最后登录
2017-8-23
发表于 2017-4-20 00:32:30 |显示全部楼层
感谢楼主分享精彩电影!
回复

使用道具 举报

0

主题

0

好友

2785

积分

人气偶像

Rank: 3Rank: 3

UID
184259
主题
0
金钱
1911
高清币
0
鲜花
0
阅读权限
30
最后登录
2017-8-23
发表于 2017-4-20 00:32:51 |显示全部楼层
感谢楼主分享精彩电影!特许打诨插科y
回复

使用道具 举报

期待您加入中国高清论坛QQ交流2群:178485671
 懒得打字嘛,点击右侧快捷回复【左侧自定义内容】  【右侧自定义内容】
您需要登录后才可以回帖 登录 | 立即注册