请选择 进入手机版 | 继续访问电脑版

中国高清论坛

11
 找回密码
 立即注册

QQ登录

只需一步,快速开始

查看: 9139|回复: 1595

[科幻片] 莫斯科陷落/异星引力(台) Attraction.2017.RUSSIAN.1080p.BluRay.x264.DTS-FGT 13.48 GiB

  [复制链接]

8579

主题

0

好友

4万

积分

区域版主

Rank: 8Rank: 8

UID
13244
主题
8579
金钱
20550
高清币
8424
鲜花
-89
阅读权限
100
QQ
QQ
最后登录
2017-6-27
发表于 2017-4-20 19:34:17 |显示全部楼层
本帖最后由 jinggangshi 于 2017-4-20 23:51 编辑



◎译  名 莫斯科陷落/异星引力(台)
◎片  名 Prityazhenie/Притяжение
◎年  代 2017
◎国  家 俄罗斯
◎类  别 剧情/爱情/科幻
◎语  言 俄语
◎字  幕 英文
◎IMDb评分  5.1/10 from 1943 users
◎IMDB链接  http://www.imdb.com/title/tt4731148/
◎文件格式 x264 + DTS
◎视频尺寸 1920x804
◎文件大小 13.48 GiB
◎片  长 2h 12mn
◎导  演 费多尔·邦达尔丘克 Fyodor Bondarchuk
◎主  演 欧列格·米契柯夫 Oleg Menshikov
      亚历山大·佩特洛夫 Alexander Petrov
      Rinal Mukhametov
      Irina Starshenbaum
      


◎简  介

  外星文明再次驾临地球,不过这次他们攻击的城市不再是纽约伦敦,而是莫斯科。

  1. Video
  2. ID                                       : 1
  3. Format                                   : AVC
  4. Format/Info                              : Advanced Video Codec
  5. Format profile                           : High@L4.1
  6. Format settings, CABAC                   : Yes
  7. Format settings, ReFrames                : 5 frames
  8. Codec ID                                 : V_MPEG4/ISO/AVC
  9. Duration                                 : 2h 12mn
  10. Bit rate                                 : 12.8 Mbps
  11. Width                                    : 1 920 pixels
  12. Height                                   : 804 pixels
  13. Display aspect ratio                     : 2.40:1
  14. Frame rate mode                          : Constant
  15. Frame rate                               : 24.000 fps
  16. Color space                              : YUV
  17. Chroma subsampling                       : 4:2:0
  18. Bit depth                                : 8 bits
  19. Scan type                                : Progressive
  20. Bits/(Pixel*Frame)                       : 0.344
  21. Stream size                              : 11.8 GiB (88%)
  22. Title                                    : Attraction.2017.RUSSIAN.1080p.BluRay.x264.DTS-FGT
  23. Writing library                          : x264 core 148 r2744 b97ae06
  24. Encoding settings                        : cabac=1 / ref=5 / deblock=1:-3:-3 / analyse=0x3:0x133 / me=umh / subme=11 / psy=1 / psy_rd=1.00:0.00 / mixed_ref=1 / me_range=48 / chroma_me=1 / trellis=2 / 8x8dct=1 / cqm=0 / deadzone=21,11 / fast_pskip=0 / chroma_qp_offset=-2 / threads=18 / lookahead_threads=3 / sliced_threads=0 / nr=0 / decimate=1 / interlaced=0 / bluray_compat=0 / constrained_intra=0 / bframes=7 / b_pyramid=2 / b_adapt=2 / b_bias=0 / direct=1 / weightb=1 / open_gop=0 / weightp=2 / keyint=240 / keyint_min=24 / scenecut=40 / intra_refresh=0 / rc_lookahead=60 / rc=crf / mbtree=0 / crf=17.9 / qcomp=0.60 / qpmin=0 / qpmax=69 / qpstep=4 / vbv_maxrate=50000 / vbv_bufsize=62500 / crf_max=0.0 / nal_hrd=none / filler=0 / ip_ratio=1.35 / pb_ratio=1.25 / aq=3:0.80
  25. Language                                 : Russian
  26. Default                                  : Yes
  27. Forced                                   : No

  28. Audio
  29. ID                                       : 2
  30. Format                                   : DTS
  31. Format/Info                              : Digital Theater Systems
  32. Mode                                     : 16
  33. Format settings, Endianness              : Big
  34. Codec ID                                 : A_DTS
  35. Duration                                 : 2h 12mn
  36. Bit rate mode                            : Constant
  37. Bit rate                                 : 1 510 Kbps
  38. Channel(s)                               : 6 channels
  39. Channel positions                        : Front: L C R, Side: L R, LFE
  40. Sampling rate                            : 48.0 KHz
  41. Frame rate                               : 93.750 fps (512 spf)
  42. Bit depth                                : 24 bits
  43. Compression mode                         : Lossy
  44. Stream size                              : 1.40 GiB (10%)
  45. Title                                    : Attraction.2017.RUSSIAN.1080p.BluRay.x264.DTS-FGT
  46. Language                                 : Russian
  47. Default                                  : Yes
  48. Forced                                   : No

  49. Text
  50. ID                                       : 3
  51. Format                                   : UTF-8
  52. Codec ID                                 : S_TEXT/UTF8
  53. Codec ID/Info                            : UTF-8 Plain Text
  54. Language                                 : English
  55. Default                                  : Yes
  56. Forced                                   : No

  57. Menu
  58. 00:00:00.000                             : en:
  59. 00:10:03.708                             : en:
  60. 00:23:20.208                             : en:
  61. 00:29:36.458                             : en:
  62. 00:42:24.417                             : en:
  63. 00:50:32.000                             : en:
  64. 01:02:20.500                             : en:
  65. 01:14:38.792                             : en:
  66. 01:23:25.292                             : en:
  67. 01:37:06.583                             : en:
  68. 01:46:10.125                             : en:
  69. 01:55:38.500                             : en:
复制代码











游客,如果您要查看本帖隐藏内容请回复,如不想回复请点击赞助VIP贵宾:https://item.taobao.com/item.htm?id=540849877691
回复

使用道具 举报

0

主题

1

好友

1302

积分

人气偶像

Rank: 3Rank: 3

UID
124320
主题
0
金钱
1065
高清币
0
鲜花
0
阅读权限
30
QQ
QQ
最后登录
2017-6-18
发表于 2017-4-20 19:36:07 |显示全部楼层
DING DING DING
回复

使用道具 举报

0

主题

0

好友

3165

积分

天王巨星

Rank: 4

UID
798363
主题
0
金钱
1299
高清币
564
鲜花
0
阅读权限
50
QQ
QQ
最后登录
2017-6-27
发表于 2017-4-20 19:37:53 |显示全部楼层
楼主,我太崇拜你了!
回复

使用道具 举报

0

主题

26

好友

5730

积分

金鸡奖主角

Rank: 5Rank: 5

UID
283980
主题
0
金钱
3257
高清币
640
鲜花
0
阅读权限
70
QQ
QQ
最后登录
2017-6-27
发表于 2017-4-20 19:38:36 |显示全部楼层
谢谢楼主分享!
回复

使用道具 举报

0

主题

0

好友

5132

积分

金鸡奖主角

Rank: 5Rank: 5

UID
128136
主题
0
金钱
3627
高清币
10
鲜花
0
阅读权限
70
QQ
QQ
最后登录
2017-6-27
发表于 2017-4-20 19:39:08 |显示全部楼层

每天都来中国高清论坛看看有什么电影!
回复

使用道具 举报

1

主题

0

好友

7787

积分

金鸡奖主角

Rank: 5Rank: 5

UID
109157
主题
1
金钱
5105
高清币
0
鲜花
0
阅读权限
70
QQ
QQ
最后登录
2017-6-27
发表于 2017-4-20 19:40:51 |显示全部楼层
中国高清论坛很棒!
回复

使用道具 举报

0

主题

0

好友

3955

积分

天王巨星

Rank: 4

UID
182394
主题
0
金钱
2993
高清币
94
鲜花
0
阅读权限
50
QQ
QQ
最后登录
2017-6-27
发表于 2017-4-20 19:41:02 |显示全部楼层
每天都来中国高清论坛看看有什么电影!
回复

使用道具 举报

1

主题

0

好友

6915

积分

金鸡奖主角

Rank: 5Rank: 5

UID
417962
主题
1
金钱
4306
高清币
4
鲜花
0
阅读权限
70
QQ
QQ
最后登录
2017-6-27
发表于 2017-4-20 19:42:19 |显示全部楼层
每天都来中国高清论坛看看有什么电影!
回复

使用道具 举报

0

主题

0

好友

378

积分

知名艺人

Rank: 2

UID
797930
主题
0
金钱
250
高清币
2
鲜花
0
阅读权限
20
QQ
QQ
最后登录
2017-6-25
发表于 2017-4-20 19:42:20 |显示全部楼层
!!!!!!!!!!!!!!!!!!!!!!
回复

使用道具 举报

0

主题

0

好友

72

积分

跑龙套

Rank: 1

UID
795691
主题
0
金钱
49
高清币
-1
鲜花
0
阅读权限
10
QQ
QQ
最后登录
2017-6-19
发表于 2017-4-20 19:42:37 |显示全部楼层
谢谢楼主分享!
回复

使用道具 举报

期待您加入中国高清论坛QQ交流3群:101032372
 懒得打字嘛,点击右侧快捷回复【左侧自定义内容】  【右侧自定义内容】
您需要登录后才可以回帖 登录 | 立即注册