请选择 进入手机版 | 继续访问电脑版

中国高清论坛

 找回密码
 立即注册
查看: 2448|回复: 477

[动作片] 巴霍巴利王(下):终结/巴霍巴利王(下)/巴霍巴利王2/巴霍巴利王:结局/巴霍巴利王:磅礴终章(台) Baahubali.2.The.Conclusion.2017.Hindi.1080p.BluRay.x264.DTS.5.1-Hon3y 10.01 GiB

  [复制链接]

9201

主题

0

好友

4万

积分

区域版主

Rank: 8Rank: 8

UID
13244
主题
9201
金钱
21987
高清币
9042
鲜花
-89
阅读权限
100
QQ
QQ
最后登录
2017-11-19
发表于 2017-8-1 07:52:47 |显示全部楼层


◎译  名 巴霍巴利王(下):终结/巴霍巴利王(下)/巴霍巴利王2/巴霍巴利王:结局/巴霍巴利王:磅礴终章(台)
◎片  名 Baahubali: The Conclusion / Baahubali: Part II / Baahubali 2: The Conclusion
◎年  代 2017
◎国  家 印度
◎类  别 动作/冒险/剧情
◎语  言 印地语
◎字  幕 英文
◎IMDb评分 8.7/10 from 45677 users
◎IMDB链接 http://www.imdb.com/title/tt4849438
◎文件格式 x264 + DTS
◎视频尺寸 1920x800
◎文件大小 10.01 GiB
◎片  长 2 h 46 min
◎导  演 S·S·拉贾穆里 S.S. Rajamouli
◎主  演 帕拉巴斯 Prabhas
       拉纳·达格巴提 Rana Daggubati
       安努舒卡·谢蒂 Anushka Shetty
       特曼娜·芭蒂亚 Tamannaah Bhatia
       萨伯拉杰 Subbaraju
       拉姆亚·克里希南 Ramya Krishnan
       纳赛尔 Nasser
       挲塞亚拉杰 Satyaraj

◎简  介

  同蛮族的大战以摩喜施末底的胜利而告终,根据战场上的表现,希瓦伽米太后(拉姆亚·克里希南饰)选择了养子阿玛兰德拉·巴霍巴利(帕拉巴斯饰)作为王国的王储。在加冕典礼之前太后交给巴霍巴利的最后一项任务是游历王国,体察臣民的疾苦,理解'臣民的审判'。同时,太后还竭尽全力满足自己的亲子巴拉拉德夫德斯(纳拉·达古巴提饰)的各种需求,希望能够克制他的贪婪,平衡兄弟的关系。

  巴霍巴利经过一个叫昆达拉的诸侯小国时,偶遇美丽绝伦、剑术高超的提婆犀那公主(安努舒卡·谢蒂饰),立刻惊为天人,无以自拔。同行的卡塔帕将军(萨蒂亚拉吉饰)灵机一动,让巴霍巴利装成傻子去接近公主,在妙趣横生的交往中,感情在慢慢滋生。这时,希瓦伽米太后派人来到昆达拉为子提亲,遭到提婆犀那的拒绝。一个夜晚,蛮族忽然入侵昆达拉,王国命运危在旦夕,这时巴霍巴利有如天兵天将,凭借其盖世武功将敌军击退。正在此时,盛怒之下的希瓦伽米太后给巴霍巴利发来讯息,要将提婆犀那以囚犯的身份抓回国内。

  巴霍巴利回到国内后,形势陡然而变,太后将如何制裁对自己不敬的提婆犀那?巴拉拉德夫德斯会接受自己的失败吗?巴霍巴利是如何走到生命的终点?这一切都要在二十五年后由卡塔帕向阿玛兰德拉·巴霍巴利之子——摩哂陀·巴霍巴利(帕拉巴斯饰)娓娓道来。而摩哂陀面对着空前强大的敌人,要为这段故事、这段历史书写结局。
  1. Format : Matroska
  2. Format version : Version 4 / Version 2
  3. File size : 10.0 GiB
  4. Duration : 2 h 46 min
  5. Overall bit rate : 8 590 kb/s
  6. Movie name : Baahubali 2 The Conclusion 2017 - Hon3y


  7. Video
  8. ID : 1
  9. Format : AVC
  10. Format/Info : Advanced Video Codec
  11. Format profile : High@L4.1
  12. Format settings, CABAC : Yes
  13. Format settings, ReFrames : 5 frames
  14. Codec ID : V_MPEG4/ISO/AVC
  15. Duration : 2 h 46 min
  16. Bit rate : 7 067 kb/s
  17. Width : 1 920 pixels
  18. Height : 800 pixels
  19. Display aspect ratio : 2.40:1
  20. Frame rate mode : Constant
  21. Frame rate : 24.000 FPS

  22. Audio
  23. ID : 2
  24. Format : DTS
  25. Format/Info : Digital Theater Systems
  26. Mode : 16
  27. Format settings, Endianness : Big
  28. Codec ID : A_DTS
  29. Duration : 2 h 46 min
  30. Bit rate mode : Constant
  31. Bit rate : 1 509 kb/s
  32. Channel(s) : 6 channels
  33. Channel positions : Front: L C R, Side: L R, LFE
  34. Sampling rate : 48.0 kHz
  35. Frame rate : 93.750 FPS (512 spf)
  36. Bit depth : 24 bits
  37. Compression mode : Lossy
  38. Stream size : 1.76 GiB (18%)
  39. Language : Hindi
  40. Default : Yes
  41. Forced : No

  42. Text #1
  43. ID : 3
  44. Format : UTF-8
  45. Codec ID : S_TEXT/UTF8
  46. Codec ID/Info : UTF-8 Plain Text
  47. Duration : 2 h 43 min
  48. Bit rate : 42 b/s
  49. Count of elements : 1532
  50. Stream size : 50.7 KiB (0%)
  51. Language : English
  52. Default : Yes
  53. Forced : No

  54. Text #2
  55. ID : 4
  56. Format : PGS
  57. Muxing mode : zlib
  58. Codec ID : S_HDMV/PGS
  59. Codec ID/Info : Picture based subtitle format used on BDs/HD-DVDs
  60. Duration : 2 h 40 min
  61. Bit rate : 14.8 kb/s
  62. Count of elements : 2503
  63. Stream size : 17.1 MiB (0%)
  64. Language : English
  65. Default : No
  66. Forced : No

  67. Menu
  68. 00:00:00.000 : en:Chapter 01
  69. 00:02:42.375 : en:Chapter 02
  70. 00:05:11.458 : en:Chapter 03
  71. 00:08:24.458 : en:Chapter 04
  72. 00:16:41.541 : en:Chapter 05
  73. 00:30:31.791 : en:Chapter 06
  74. 00:39:21.791 : en:Chapter 07
  75. 00:42:57.500 : en:Chapter 08
  76. 00:46:24.541 : en:Chapter 09
  77. 00:51:02.416 : en:Chapter 10
  78. 01:07:36.416 : en:Chapter 11
  79. 01:11:51.041 : en:Chapter 12
  80. 01:18:27.875 : en:Chapter 13
  81. 01:27:20.000 : en:Chapter 14
  82. 01:38:15.333 : en:Chapter 15
  83. 01:43:27.416 : en:Chapter 16
  84. 01:51:08.166 : en:Chapter 17
  85. 02:01:31.000 : en:Chapter 18
  86. 02:13:27.833 : en:Chapter 19
  87. 02:39:25.250 : en:Chapter 20
复制代码





游客,如果您要查看本帖隐藏内容请回复
回复

使用道具 举报

3

主题

1

好友

7789

积分

金鸡奖主角

Rank: 5Rank: 5

UID
274021
主题
3
金钱
5089
高清币
122
鲜花
0
阅读权限
70
QQ
QQ
最后登录
2017-9-20
发表于 2017-8-1 07:53:22 |显示全部楼层
听说这个不错,下载一个看看
回复

使用道具 举报

0

主题

0

好友

1302

积分

人气偶像

Rank: 3Rank: 3

UID
841310
主题
0
金钱
690
高清币
44
鲜花
0
阅读权限
30
QQ
QQ
最后登录
2017-9-21
发表于 2017-8-1 07:54:54 |显示全部楼层
楼主,我太崇拜你了!
回复

使用道具 举报

0

主题

0

好友

8440

积分

金鸡奖主角

Rank: 5Rank: 5

UID
44573
主题
0
金钱
4318
高清币
1227
鲜花
0
阅读权限
70
QQ
QQ
最后登录
2017-9-21
发表于 2017-8-1 08:00:10 |显示全部楼层
感谢分享!!
回复

使用道具 举报

0

主题

0

好友

3416

积分

天王巨星

Rank: 4

UID
538329
主题
0
金钱
2046
高清币
1
鲜花
0
阅读权限
50
QQ
QQ
最后登录
2017-11-17
发表于 2017-8-1 08:04:08 |显示全部楼层
每天都来中国高清论坛看看有什么电影!
回复

使用道具 举报

0

主题

0

好友

1012

积分

人气偶像

Rank: 3Rank: 3

UID
544030
主题
0
金钱
830
高清币
14
鲜花
0
阅读权限
30
QQ
QQ
最后登录
2017-9-21
发表于 2017-8-1 08:10:21 |显示全部楼层
每天都来中国高清论坛看看有什么电影!

回复

使用道具 举报

1

主题

1

好友

819

积分

知名艺人

Rank: 2

UID
396514
主题
1
金钱
510
高清币
8
鲜花
0
阅读权限
20
QQ
QQ
最后登录
2017-9-19
发表于 2017-8-1 08:11:17 |显示全部楼层
楼主,我太崇拜你了!
回复

使用道具 举报

0

主题

0

好友

154

积分

跑龙套

Rank: 1

UID
867781
主题
0
金钱
96
高清币
0
鲜花
0
阅读权限
10
QQ
QQ
最后登录
2017-11-18
发表于 2017-8-1 08:15:43 |显示全部楼层
楼主分享的高清电影太好了!
回复

使用道具 举报

0

主题

0

好友

3406

积分

天王巨星

Rank: 4

UID
661413
主题
0
金钱
1893
高清币
87
鲜花
0
阅读权限
50
QQ
QQ
最后登录
2017-11-17
发表于 2017-8-1 08:16:51 |显示全部楼层
楼主分享的高清电影太好了
回复

使用道具 举报

0

主题

0

好友

5640

积分

金鸡奖主角

Rank: 5Rank: 5

UID
236765
主题
0
金钱
3901
高清币
0
鲜花
0
阅读权限
70
QQ
QQ
最后登录
2017-9-17
发表于 2017-8-1 08:20:05 |显示全部楼层
这片子应该可以的,第一部就不错
回复

使用道具 举报

期待您加入中国高清论坛QQ交流7群:90967029
 懒得打字嘛,点击右侧快捷回复【左侧自定义内容】  【右侧自定义内容】
您需要登录后才可以回帖 登录 | 立即注册

回顶部