请选择 进入手机版 | 继续访问电脑版

中国高清论坛

 找回密码
 立即注册
查看: 3362|回复: 1180

[动作片] 战狼2/新战狼/新战死沙场 [4K&1080p双版本/普通话/内嵌中英字幕] Wolf.Warriors.Ⅱ.2017.WEB-DL.1080P&2160P.H264.AAC-JBY 5.44 GiB & 2.05 GiB

  [复制链接]

9201

主题

0

好友

4万

积分

区域版主

Rank: 8Rank: 8

UID
13244
主题
9201
金钱
21987
高清币
9042
鲜花
-89
阅读权限
100
QQ
QQ
最后登录
2017-11-19
发表于 2017-11-10 18:38:56 |显示全部楼层
本帖最后由 jinggangshi 于 2017-11-11 10:29 编辑



◎译  名 战狼2/新战狼/新战死沙场
◎片  名 Wolf Warriors 2
◎年  代 2017
◎国  家 中国
◎类  别 动作
◎语  言 普通话
◎字  幕 简体中文/英文
◎IMDb评分 6.7/10 from 2,226 users
◎IMDB链接 http://www.imdb.com/title/tt7131870
◎文件格式 H264 + AAC
◎文件大小 1CD 5.44 GiB & 2.05 GiB
◎片  长 2 h 3 min
◎导  演 吴京 Jacky Wu
◎主  演 吴京 Jacky Wu
       弗兰克·格里罗 Frank Grillo
       吴刚 Gang Wu
       张翰 Han Zhang
       卢靖姗 Celina Jade
       丁海峰 Haifeng Ding
       淳于珊珊 Shanshan Chunyu
       余男 Nan Yu
       于谦 Qian Yu
       石兆琪 Zhaoqi Shi
       海蒂·玛尼梅可 Heidi Moneymaker
       奥列格·普鲁迪乌斯 Oleg Aleksandrovich Prudius
       阿隆·汤尼 Aaron Toney
       泰勒·哈里斯 Thayr Harris
       勃小龙 Pierre Bourdaud

◎简  介

  故事发生在非洲附近的大海上,主人公冷锋(吴京 饰)遭遇人生滑铁卢,被“开除军籍”,本想漂泊一生的他,正当他打算这么做的时候,一场突如其来的意外打破了他的计划,突然被卷入了一场非洲国家叛乱,本可以安全撤离,却因无法忘记曾经为军人的使命,孤身犯险冲回沦陷区,带领身陷屠杀中的同胞和难民,展开生死逃亡。随着斗争的持续,体内的狼性逐渐复苏,最终孤身闯入战乱区域,为同胞而战斗。

花絮

.开场一段6分钟的水上水下一镜到底镜头,剧组整整拍了半个月。演员和摄影师更是要每天在水中泡超过10个小时。为了赶时间,吴京和工作人员都是直接在水里吃东西,补充能量。

.为营造枪战真实感,吴京坚持使用真枪,但流程规范严格的美方团队考虑到安全问题曾不敢让他使用。

.美国动作指导萨姆·哈格里夫透露,《战狼2》拍摄中爆点位置多,火力大,算下来炸了上百辆车,2辆20吨的等比例坦克模型和1架飞机模型。

.第一次挑战没人玩过的坦克漂移,摄影师险些被坦克的炮筒“削头”。5吴刚第一次拍现代的战争戏,“拜师”吴京后进步飞速,成功完成了“单手换弹夹”。
  1. General
  2. Complete name                  : E:\迅雷下载\[WEBHD]战狼2 Wolf.Warriors.Ⅱ.2017.WEB-DL.1080P&2160P.H264.AAC-JBY@WEBHD\[WEBHD]战狼2 Wolf.Warriors.Ⅱ.2017.WEB-DL.1080P.H264.AAC-JBY@WEBHD.mp4
  3. Format                         : MPEG-4
  4. Format profile                 : Base Media
  5. Codec ID                       : isom (isom/iso2/avc1/mp41)
  6. File size                      : 2.05 GiB
  7. Duration                       : 2 h 3 min
  8. Overall bit rate               : 2 384 kb/s
  9. Writing application            : Lavf57.25.100

  10. Video
  11. ID                             : 1
  12. Format                         : AVC
  13. Format/Info                    : Advanced Video Codec
  14. Format profile                 : High@L4
  15. Format settings, CABAC         : Yes
  16. Format settings, RefFrames     : 4 frames
  17. Codec ID                       : avc1
  18. Codec ID/Info                  : Advanced Video Coding
  19. Duration                       : 2 h 3 min
  20. Bit rate                       : 2 251 kb/s
  21. Width                          : 1 920 pixels
  22. Height                         : 806 pixels
  23. Display aspect ratio           : 2.40:1
  24. Frame rate mode                : Variable
  25. Frame rate                     : 25.000 FPS
  26. Minimum frame rate             : 8.333 FPS
  27. Maximum frame rate             : 25.000 FPS
  28. Color space                    : YUV
  29. Chroma subsampling             : 4:2:0
  30. Bit depth                      : 8 bits
  31. Scan type                      : Progressive
  32. Bits/(Pixel*Frame)             : 0.058
  33. Stream size                    : 1.94 GiB (94%)

  34. Audio
  35. ID                             : 2
  36. Format                         : AAC
  37. Format/Info                    : Advanced Audio Codec
  38. Format profile                 : LC
  39. Codec ID                       : 40
  40. Duration                       : 2 h 3 min
  41. Bit rate mode                  : Constant
  42. Bit rate                       : 128 kb/s
  43. Channel(s)                     : 2 channels
  44. Channel positions              : Front: L R
  45. Sampling rate                  : 44.1 kHz
  46. Frame rate                     : 43.066 FPS (1024 SPF)
  47. Compression mode               : Lossy
  48. Stream size                    : 113 MiB (5%)
  49. Default                        : Yes
  50. Alternate group                : 1

复制代码


游客,如果您要查看本帖隐藏内容请回复


回复

使用道具 举报

0

主题

0

好友

98

积分

跑龙套

Rank: 1

UID
856016
主题
0
金钱
54
高清币
2
鲜花
0
阅读权限
10
QQ
QQ
最后登录
2017-11-10
发表于 2017-11-10 18:47:23 |显示全部楼层
支持支持!此片必须要支持!
回复

使用道具 举报

0

主题

0

好友

1万

积分

超级明星

Rank: 7Rank: 7Rank: 7

UID
484767
主题
0
金钱
6966
高清币
2196
鲜花
0
阅读权限
90
QQ
QQ
最后登录
2017-11-19
发表于 2017-11-10 18:48:38 |显示全部楼层
感谢楼主分享精彩电影!
回复

使用道具 举报

0

主题

0

好友

325

积分

知名艺人

Rank: 2

UID
200483
主题
0
金钱
208
高清币
6
鲜花
0
阅读权限
20
QQ
QQ
最后登录
2017-11-13
发表于 2017-11-10 18:53:31 |显示全部楼层
不知道这个版本的色彩是否正常,谢谢分享
回复

使用道具 举报

0

主题

0

好友

1411

积分

人气偶像

Rank: 3Rank: 3

UID
590231
主题
0
金钱
1018
高清币
7
鲜花
0
阅读权限
30
QQ
QQ
最后登录
2017-11-18
发表于 2017-11-10 18:54:20 |显示全部楼层
感谢楼主分享
回复

使用道具 举报

0

主题

0

好友

1448

积分

人气偶像

Rank: 3Rank: 3

UID
740143
主题
0
金钱
828
高清币
2
鲜花
0
阅读权限
30
QQ
QQ
最后登录
2017-11-15
发表于 2017-11-10 18:54:53 |显示全部楼层

感谢楼主分享
回复

使用道具 举报

0

主题

0

好友

4228

积分

天王巨星

Rank: 4

UID
128194
主题
0
金钱
3262
高清币
1
鲜花
0
阅读权限
50
QQ
QQ
最后登录
2017-11-10
发表于 2017-11-10 18:56:09 |显示全部楼层
RE: 战狼2 Wolf.Warriors.Ⅱ.2017.WEB-DL.1080P&2160P.H264.AAC-JB
回复

使用道具 举报

0

主题

0

好友

14

积分

跑龙套

Rank: 1

UID
885717
主题
0
金钱
9
高清币
1
鲜花
0
阅读权限
10
QQ
QQ
最后登录
2017-11-11
发表于 2017-11-10 19:06:33 |显示全部楼层
回复

使用道具 举报

0

主题

0

好友

3330

积分

天王巨星

Rank: 4

UID
104198
主题
0
金钱
2061
高清币
4
鲜花
0
阅读权限
50
QQ
QQ
最后登录
2017-11-17
发表于 2017-11-10 19:11:52 |显示全部楼层
楼主分享的高清电影太好了!
回复

使用道具 举报

0

主题

0

好友

8358

积分

金鸡奖主角

Rank: 5Rank: 5

UID
374350
主题
0
金钱
2865
高清币
1639
鲜花
0
阅读权限
70
QQ
QQ
最后登录
2017-11-11
发表于 2017-11-10 19:26:39 |显示全部楼层
多谢楼主分享经典影片。
回复

使用道具 举报

期待您加入中国高清论坛QQ交流7群:90967029
 懒得打字嘛,点击右侧快捷回复【左侧自定义内容】  【右侧自定义内容】
您需要登录后才可以回帖 登录 | 立即注册

回顶部