请选择 进入手机版 | 继续访问电脑版

中国高清论坛

 找回密码
 立即注册
查看: 4091|回复: 827

[剧情片] 微交少女 [国粤双语/中英双字]May We Chat.2014.HK.BluRay.1920x808p.x264.AC3.2Audios-KOOK 6.85GB

  [复制链接]

2417

主题

37

好友

45万

积分

超级版主

Rank: 8Rank: 8

UID
829784
主题
2417
金钱
9972
高清币
221894
鲜花
4
阅读权限
150
QQ
QQ
最后登录
2017-11-19
发表于 2017-11-10 23:15:12 |显示全部楼层

※※※※※※※ 影片信息 ※※※※※※※

◎片   名 微交少女
◎译   名 What's Up Girls / May We Chat
◎年   代 2014
◎国   家 香港
◎类   别 剧情 / 情色
◎语   言 粤语/国语
◎上映日 期 2014-06-19(香港)
◎字   幕 中英双字/简体字幕/繁体字幕/英文字幕
◎IMDB 评分  5.0/10 from 118 users
◎豆瓣 评分  4.6/10 from 1803 users
◎视频尺 寸  1920x808p
◎片   长 1.38.40
◎导   演 翁子光
◎编     剧  翁子光 / 吕筱华
◎主   演 主演: 温碧霞 / 许雅婷 / 蔚雨芯 / 何浩文 / 麥德和




◎简  介

     延续1982年卖座电影《靓妹仔》奇蹟,由《明媚时光》香港电影金像奖最佳新晋导演提名翁子光编导、《天水围的日与夜》香港电影金像奖最佳编剧吕筱华编剧、《囡囡》《喜爱夜蒲》系列伍健雄监制,将当代社会委靡面貌及迷失少女的叛逆青春,再一次真实呈现。三十年前,《靓妺仔》充份反映当时叛逆未成年少女实况,时至今日,时代变迁,2013年的未成年少女出卖身体的情况变本加厉,由「鱼蛋妺」、「老泥妹」到现在的「援交妹」、「Part-time girlfriend」,她们已不是过去的「迫良为娼」、「为势所迫」,而是更加「我行我素」、「没有包袱」、「放纵失控」。







※※※※※※※ 参数信息 ※※※※※※※



General
Unique ID                      : 236596857953518459121369277886040971001 (0xB1FEE5B89A4113A981DFF3BFDA0516F9)

Format                         : Matroska
Format version                 : Version 4 / Version 2
File size                      : 6.85 GiB
Duration                       : 1 h 38 min
Overall bit rate               : 9 944 kb/s
Encoded date                   : UTC 2017-11-09 12:58:06
Writing application            : mkvmerge v9.4.2 ('So High') 64bit
Writing library                : libebml v1.3.4 + libmatroska v1.4.5
Attachments                    : msyhbd.ttf / msyh.ttf / 正式海报 香港1.jpg

Video
ID                             : 1
Format                         : AVC
Format/Info                    : Advanced Video Codec
Format profile                 : High@L4.1
Format settings, CABAC         : Yes
Format settings, ReFrames      : 5 frames
Codec ID                       : V_MPEG4/ISO/AVC
Duration                       : 1 h 38 min
Bit rate                       : 8 874 kb/s
Width                          : 1 920 pixels
Height                         : 808 pixels
Display aspect ratio           : 2.40:1
Frame rate mode                : Constant
Frame rate                     : 23.976 (23976/1000) FPS
Original frame rate            : 24.000 FPS
Color space                    : YUV
Chroma subsampling             : 4:2:0
Bit depth                      : 8 bits
Scan type                      : Progressive
Bits/(Pixel*Frame)             : 0.239
Stream size                    : 6.11 GiB (89%)
Writing library                : x264 core 148 r2638 7599210
Encoding settings              : cabac=1 / ref=5 / deblock=1:0:0 / analyse=0x3:0x133 / me=umh / subme=7 / psy=1 / psy_rd=1.00:0.00 / mixed_ref=1 / me_range=16 / chroma_me=1 / trellis=1 / 8x8dct=1 / cqm=0 / deadzone=21,11 / fast_pskip=0 / chroma_qp_offset=-2 / threads=12 / lookahead_threads=2 / sliced_threads=0 / nr=0 / decimate=1 / interlaced=0 / bluray_compat=0 / constrained_intra=0 / bframes=3 / b_pyramid=2 / b_adapt=1 / b_bias=0 / direct=1 / weightb=1 / open_gop=0 / weightp=2 / keyint=250 / keyint_min=23 / scenecut=40 / intra_refresh=0 / rc_lookahead=40 / rc=2pass / mbtree=1 / bitrate=8874 / ratetol=1.0 / qcomp=0.60 / qpmin=0 / qpmax=69 / qpstep=4 / cplxblur=20.0 / qblur=0.5 / ip_ratio=1.40 / aq=1:1.00
Language                       : Chinese
Default                        : Yes
Forced                         : No

Audio #1
ID                             : 2
Format                         : AC-3
Format/Info                    : Audio Coding 3
Mode extension                 : CM (complete main)
Format settings, Endianness    : Big
Codec ID                       : A_AC3
Duration                       : 1 h 38 min
Bit rate mode                  : Constant
Bit rate                       : 640 kb/s
Channel(s)                     : 6 channels
Channel positions              : Front: L C R, Side: L R, LFE
Sampling rate                  : 48.0 kHz
Frame rate                     : 31.250 FPS (1536 spf)
Compression mode               : Lossy
Stream size                    : 452 MiB (6%)
Title                          : 粤语发音
Language                       : Chinese
Default                        : Yes
Forced                         : No

Audio #2
ID                             : 3
Format                         : AC-3
Format/Info                    : Audio Coding 3
Mode extension                 : CM (complete main)
Format settings, Endianness    : Big
Codec ID                       : A_AC3
Duration                       : 1 h 38 min
Bit rate mode                  : Constant
Bit rate                       : 384 kb/s
Channel(s)                     : 2 channels
Channel positions              : Front: L R
Sampling rate                  : 48.0 kHz
Frame rate                     : 31.250 FPS (1536 spf)
Compression mode               : Lossy
Stream size                    : 271 MiB (4%)
Title                          : 国语发音
Default                        : No
Forced                         : No

Text #1
ID                             : 4
Format                         : ASS
Codec ID                       : S_TEXT/ASS
Codec ID/Info                  : Advanced Sub Station Alpha
Duration                       : 1 h 36 min
Bit rate                       : 274 b/s
Count of elements              : 1277
Compression mode               : Lossless
Stream size                    : 194 KiB (0%)
Title                          : 中英字幕
Language                       : Chinese
Default                        : Yes
Forced                         : No

Text #2
ID                             : 5
Format                         : ASS
Codec ID                       : S_TEXT/ASS
Codec ID/Info                  : Advanced Sub Station Alpha
Duration                       : 1 h 36 min
Bit rate                       : 147 b/s
Count of elements              : 1266
Compression mode               : Lossless
Stream size                    : 104 KiB (0%)
Title                          : 简体字幕
Language                       : Chinese
Default                        : No
Forced                         : No

Text #3
ID                             : 6
Format                         : ASS
Codec ID                       : S_TEXT/ASS
Codec ID/Info                  : Advanced Sub Station Alpha
Duration                       : 1 h 36 min
Bit rate                       : 147 b/s
Count of elements              : 1266
Compression mode               : Lossless
Stream size                    : 104 KiB (0%)
Title                          : 繁体字幕
Language                       : Chinese
Default                        : No
Forced                         : No

Text #4
ID                             : 7
Format                         : ASS
Codec ID                       : S_TEXT/ASS
Codec ID/Info                  : Advanced Sub Station Alpha
Duration                       : 1 h 36 min
Bit rate                       : 179 b/s
Count of elements              : 1277
Compression mode               : Lossless
Stream size                    : 127 KiB (0%)
Title                          : 英文字幕
Language                       : English
Default                        : No
Forced                         : No

Menu
00:00:00.000                   : en:00:00:00.000
00:08:25.500                   : en:00:08:25.500
00:19:17.958                   : en:00:19:17.958
00:27:31.958                   : en:00:27:31.958
00:32:46.208                   : en:00:32:46.208
00:41:44.542                   : en:00:41:44.542
00:49:25.500                   : en:00:49:25.500
00:59:24.917                   : en:00:59:24.917
01:06:41.625                   : en:01:06:41.625
01:13:02.583                   : en:01:13:02.583
01:23:31.250                   : en:01:23:31.250
01:30:28.083                   : en:01:30:28.083



游客,如果您要查看本帖隐藏内容请回复
回复

使用道具 举报

0

主题

0

好友

180

积分

跑龙套

Rank: 1

UID
910876
主题
0
金钱
73
高清币
25
鲜花
0
阅读权限
10
QQ
QQ
最后登录
2017-11-18
发表于 2017-11-10 23:17:37 |显示全部楼层
感谢楼主分享精彩电影!
回复

使用道具 举报

0

主题

0

好友

1498

积分

人气偶像

Rank: 3Rank: 3

UID
469038
主题
0
金钱
914
高清币
28
鲜花
0
阅读权限
30
QQ
QQ
最后登录
2017-11-15
发表于 2017-11-10 23:18:53 |显示全部楼层
感谢楼主分享精彩电影!
回复

使用道具 举报

15

主题

23

好友

3万

积分

永恒神话

Rank: 10Rank: 10Rank: 10

UID
862896
主题
15
金钱
11276
高清币
8995
鲜花
0
阅读权限
90
QQ
QQ
最后登录
2017-11-19

天秤座

发表于 2017-11-10 23:23:13 |显示全部楼层
感谢楼主分享精彩电影!
回复

使用道具 举报

0

主题

0

好友

314

积分

知名艺人

Rank: 2

UID
736257
主题
0
金钱
192
高清币
0
鲜花
0
阅读权限
20
QQ
QQ
最后登录
2017-11-15
发表于 2017-11-10 23:24:00 |显示全部楼层
我看不错噢 谢谢楼主!
回复

使用道具 举报

0

主题

0

好友

1万

积分

影坛巨星

Rank: 8Rank: 8

UID
425196
主题
0
金钱
9228
高清币
1028
鲜花
0
阅读权限
90
QQ
QQ
最后登录
2017-11-19
发表于 2017-11-10 23:29:18 |显示全部楼层
thks for sharing
回复

使用道具 举报

0

主题

0

好友

2974

积分

人气偶像

Rank: 3Rank: 3

UID
408587
主题
0
金钱
1994
高清币
0
鲜花
0
阅读权限
30
QQ
QQ
最后登录
2017-11-12
发表于 2017-11-10 23:29:55 |显示全部楼层
每天都来中国高清论坛看看有什么电影!
回复

使用道具 举报

0

主题

0

好友

1万

积分

超级明星

Rank: 7Rank: 7Rank: 7

UID
195778
主题
0
金钱
5800
高清币
1924
鲜花
0
阅读权限
90
QQ
QQ
最后登录
2017-11-18
发表于 2017-11-10 23:29:57 |显示全部楼层
非常感谢楼主分享啊
回复

使用道具 举报

0

主题

0

好友

994

积分

知名艺人

Rank: 2

UID
900430
主题
0
金钱
315
高清币
210
鲜花
0
阅读权限
20
QQ
QQ
最后登录
2017-11-19
发表于 2017-11-10 23:33:38 |显示全部楼层
这是安慰我啊~~还是垮我啊???怎么感觉又被扁了啊
回复

使用道具 举报

1

主题

0

好友

355

积分

知名艺人

Rank: 2

UID
883143
主题
1
金钱
171
高清币
50
鲜花
0
阅读权限
20
QQ
QQ
最后登录
2017-11-18
发表于 2017-11-10 23:39:49 |显示全部楼层
谢谢楼主分享
回复

使用道具 举报

期待您加入中国高清论坛QQ交流7群:90967029
 懒得打字嘛,点击右侧快捷回复【左侧自定义内容】  【右侧自定义内容】
您需要登录后才可以回帖 登录 | 立即注册

回顶部