请选择 进入手机版 | 继续访问电脑版

中国高清论坛

 找回密码
 立即注册
查看: 1518|回复: 256

[剧情片] 复仇天使 M.F.A.2017.1080p.BluRay.x264.DTS-HD.MA.5.1-MT 9.39GB

  [复制链接]

2417

主题

37

好友

45万

积分

超级版主

Rank: 8Rank: 8

UID
829784
主题
2417
金钱
9972
高清币
221896
鲜花
4
阅读权限
150
QQ
QQ
最后登录
2017-11-19
发表于 7 天前 |显示全部楼层

◎译  名 复仇天使
◎片  名 M.F.A.
◎年  代 2017
◎产  地 美国
◎类  别 剧情/犯罪/惊悚
◎语  言 英语
◎上映日期 2017-03-13(西南偏南电影节)/2017-10-13(美国)
◎IMDb评分  5.7/10 from 890 users
◎IMDb链接  http://www.imdb.com/title/tt5091530/
◎豆瓣评分 5.7/10 from 303 users
◎豆瓣链接 https://movie.douban.com/subject/27024947/
◎片  长 95分钟
◎导  演 娜塔莉·雷特 Natalia Leite
◎主  演 弗朗西斯卡·伊斯特伍德 Francesca Eastwood
      小克利夫顿·克林斯 Clifton Collins Jr.
      迈克·韦尔奇 Michael Welch
      安德鲁·卡德威尔 Andrew Caldwell
      大卫·苏利文 David Sullivan
      彼得·瓦克 Peter Vack
      亚当·拉扎尔-怀特 Adam Lazarre-White
      马龙·杨 Marlon Young
      Mike C. Manning
◎简  介
  故事讲述艺术系女生诺丽遭到同学性侵后,决定正面PK性侵者、展
开还击计划。影片今秋北美上映。





  1. Video
  2. ID                                       : 1
  3. Format                                   : AVC
  4. Format/Info                              : Advanced Video Codec
  5. Format profile                           : High@L4.1
  6. Format settings                          : CABAC / 4 Ref Frames
  7. Format settings, CABAC                   : Yes
  8. Format settings, ReFrames                : 4 frames
  9. Codec ID                                 : V_MPEG4/ISO/AVC
  10. Duration                                 : 1 h 32 min
  11. Bit rate                                 : 12.9 Mb/s
  12. Width                                    : 1 920 pixels
  13. Height                                   : 1 038 pixels
  14. Display aspect ratio                     : 1.85:1
  15. Frame rate mode                          : Constant
  16. Frame rate                               : 23.976 (24000/1001) FPS
  17. Color space                              : YUV
  18. Chroma subsampling                       : 4:2:0
  19. Bit depth                                : 8 bits
  20. Scan type                                : Progressive
  21. Bits/(Pixel*Frame)                       : 0.270
  22. Stream size                              : 8.29 GiB (88%)
  23. Default                                  : Yes
  24. Forced                                   : No

  25. Audio
  26. ID                                       : 2
  27. Format                                   : DTS
  28. Format/Info                              : Digital Theater Systems
  29. Format profile                           : MA / Core
  30. Codec ID                                 : A_DTS
  31. Duration                                 : 1 h 32 min
  32. Bit rate mode                            : Variable / Constant
  33. Bit rate                                 : 1 698 kb/s / 1 509 kb/s
  34. Channel(s)                               : 6 channels
  35. Channel positions                        : Front: L C R, Side: L R, LFE
  36. Sampling rate                            : 48.0 kHz
  37. Frame rate                               : 93.750 FPS (512 SPF)
  38. Bit depth                                : 16 bits
  39. Compression mode                         : Lossless / Lossy
  40. Stream size                              : 1.09 GiB (12%)
  41. Default                                  : Yes
  42. Forced                                   : No
复制代码
游客,如果您要查看本帖隐藏内容请回复


回复

使用道具 举报

1

主题

0

好友

3038

积分

天王巨星

Rank: 4

UID
24055
主题
1
金钱
2565
高清币
3
鲜花
0
阅读权限
50
QQ
QQ
最后登录
2017-11-19
发表于 7 天前 |显示全部楼层
let me see it !
回复

使用道具 举报

0

主题

0

好友

2万

积分

superstar

Rank: 9Rank: 9Rank: 9

UID
724287
主题
0
金钱
9189
高清币
6630
鲜花
0
阅读权限
90
QQ
QQ
最后登录
2017-11-18
发表于 7 天前 |显示全部楼层
感谢楼主分享精彩电影!
回复

使用道具 举报

0

主题

0

好友

1万

积分

好莱坞明星

Rank: 6Rank: 6

UID
371871
主题
0
金钱
6455
高清币
189
鲜花
0
阅读权限
90
QQ
QQ
最后登录
2017-11-18
发表于 7 天前 |显示全部楼层
感谢楼主分享精彩电影!
回复

使用道具 举报

0

主题

3

好友

4万

积分

永恒神话

Rank: 10Rank: 10Rank: 10

UID
136101
主题
0
金钱
13221
高清币
8865
鲜花
0
阅读权限
90
QQ
QQ
最后登录
2017-11-19
发表于 7 天前 |显示全部楼层
每天都来中国高清论坛看看有什么电影!
回复

使用道具 举报

2

主题

1

好友

4991

积分

天王巨星

Rank: 4

UID
187601
主题
2
金钱
3337
高清币
17
鲜花
0
阅读权限
50
QQ
QQ
最后登录
2017-11-19
发表于 7 天前 |显示全部楼层
剧情N年前就有了,如何换了演员,真的没有新意了吗
回复

使用道具 举报

0

主题

0

好友

2万

积分

superstar

Rank: 9Rank: 9Rank: 9

UID
116971
主题
0
金钱
9274
高清币
4672
鲜花
0
阅读权限
90
QQ
QQ
最后登录
2017-11-19
发表于 7 天前 |显示全部楼层
我看不错噢 谢谢楼主!
回复

使用道具 举报

0

主题

0

好友

1879

积分

人气偶像

Rank: 3Rank: 3

UID
896818
主题
0
金钱
1079
高清币
216
鲜花
0
阅读权限
30
QQ
QQ
最后登录
2017-11-19
发表于 7 天前 |显示全部楼层
中国高清论坛很棒!
回复

使用道具 举报

0

主题

0

好友

4万

积分

永恒神话

Rank: 10Rank: 10Rank: 10

UID
435195
主题
0
金钱
13320
高清币
8687
鲜花
0
阅读权限
90
QQ
QQ
最后登录
2017-11-19
发表于 7 天前 |显示全部楼层
每天都来中国高清论坛看看有什么电影!
回复

使用道具 举报

1

主题

36

好友

11万

积分

永恒神话

Rank: 10Rank: 10Rank: 10

UID
196143
主题
1
金钱
42063
高清币
22370
鲜花
0
阅读权限
90
QQ
QQ
最后登录
2017-11-19
发表于 7 天前 |显示全部楼层
感谢楼主分享精彩电影!
回复

使用道具 举报

期待您加入中国高清论坛QQ交流7群:90967029
 懒得打字嘛,点击右侧快捷回复【左侧自定义内容】  【右侧自定义内容】
您需要登录后才可以回帖 登录 | 立即注册

回顶部