请选择 进入手机版 | 继续访问电脑版

中国高清论坛

 找回密码
 立即注册
查看: 1712|回复: 126

[剧情片] 母亲湖[内封中字].Mother.Lake.2016.1080p.BluRay.x264-WiKi

  [复制链接]

1万

主题

0

好友

1万

积分

凤舞九天

Rank: 9Rank: 9Rank: 9

UID
3244
主题
10583
金钱
4231
高清币
2185
鲜花
0
阅读权限
200
QQ
QQ
最后登录
2018-7-23
发表于 2017-11-29 10:54:34 |显示全部楼层





◎译  名 母亲湖
◎片  名 マザーレイク
◎年  代 2016
◎产  地 日本
◎类  别 剧情
◎语  言 日语
◎上映日期 2016-06-04(日本)
◎豆瓣评分 6.2/10 from 23 users
◎片  长 96分钟
◎导  演 瀬木直貴
◎主  演 内田朝陽
      鶴田真由
      高橋メアリージュン
      木ノ本嶺浩
      高橋ユウ
      津田寛治
      斉木しげる
      大和田伸也
      別所哲也

◎简  介

  映画『マザーレイク』が、2016年夏に公開される。
  同作は、世界的な写真賞を受賞して滋賀に戻ってきた31歳の藤居亮介を主人公に、11歳の亮介が琵琶湖に棲むとされる首長竜・通称「ビワッシー」の存在を証明するために繰り広げた、ひと夏の冒険を描いた作品。「夢を追いかけること」と「信じること」、「夢を諦めること」と「疑うこと」をテーマに掲げ、全編にわたって滋賀で撮影が行われるという。
  キャストには、31歳の亮介を演じる内田朝陽をはじめ、鶴田真由、高橋メアリージュン、木ノ本嶺浩、高橋ユウ、津田寛治、斉木しげる、大和田伸也、別所哲也らが名を連ねている。また、公開オーディションで選出された地元のキャストや50人以上の子どもたちも出演する。
  監督は、高岡蒼佑の主演映画『ROUTE42』などを手掛けた瀬木直貴。脚本は、演劇作品に加えて映像作品も発表している劇団「月面クロワッサン」の代表・作道雄が担当している。

Video
ID                                       : 1
Format                                   : AVC
Format/Info                              : Advanced Video Codec
Format profile                           : High@L4.1
Format settings, CABAC                   : Yes
Format settings, ReFrames                : 5 frames
Codec ID                                 : V_MPEG4/ISO/AVC
Duration                                 : 1 h 35 min
Bit rate                                 : 10.1 Mb/s
Width                                    : 1 920 pixels
Height                                   : 818 pixels
Display aspect ratio                     : 2.35:1
Frame rate mode                          : Constant
Frame rate                               : 23.976 (24000/1001) FPS
Color space                              : YUV
Chroma subsampling                       : 4:2:0
Bit depth                                : 8 bits
Scan type                                : Progressive
Bits/(Pixel*Frame)                       : 0.267
Stream size                              : 6.73 GiB (96%)
Writing library                          : x264 core 129 r2245+704+36 8e61944 tMod+MixAQ [8-bit@4:2:0 X86_64]
Encoding settings                        : cabac=1 / ref=5 / deblock=1:-3:-3 / analyse=0x3:0x133 / me=umh / subme=11 / psy=1 / fade_compensate=0.00 / psy_rd=1.05:0.10 / mixed_ref=1 / me_range=64 / chroma_me=1 / trellis=2 / 8x8dct=1 / cqm=0 / deadzone=21,11 / fast_pskip=0 / chroma_qp_offset=-3 / threads=18 / lookahead_threads=3 / sliced_threads=0 / nr=0 / decimate=0 / interlaced=0 / bluray_compat=0 / constrained_intra=0 / fgo=0 / bframes=10 / b_pyramid=2 / b_adapt=2 / b_bias=0 / direct=3 / weightb=1 / open_gop=0 / weightp=2 / keyint=250 / keyint_min=23 / scenecut=40 / intra_refresh=0 / rc=2pass / mbtree=0 / bitrate=10068 / ratetol=1.0 / qcomp=0.70 / qpmin=0 / qpmax=69 / qpstep=4 / cplxblur=20.0 / qblur=0.5 / ip_ratio=1.40 / pb_ratio=1.30 / aq=1 / aq-strength=0.90 / aq-sensitivity=10.00 / aq-ifactor=1.00 / aq-pfactor=1.00 / aq-bfactor=1.00 / aq2=0
Language                                 : Japanese
Default                                  : Yes
Forced                                   : No

Audio
ID                                       : 2
Format                                   : AC-3
Format/Info                              : Audio Coding 3
Format settings, Endianness              : Big
Codec ID                                 : A_AC3
Duration                                 : 1 h 35 min
Bit rate mode                            : Constant
Bit rate                                 : 384 kb/s
Channel(s)                               : 6 channels
Channel positions                        : Front: L C R, Side: L R, LFE
Sampling rate                            : 48.0 kHz
Frame rate                               : 31.250 FPS (1536 spf)
Bit depth                                : 16 bits
Compression mode                         : Lossy
Stream size                              : 263 MiB (4%)
Language                                 : Japanese
Service kind                             : Complete Main
Default                                  : Yes
Forced                                   : No

Text
ID                                       : 3
Format                                   : ASS
Codec ID                                 : S_TEXT/ASS
Codec ID/Info                            : Advanced Sub Station Alpha
Duration                                 : 1 h 31 min
Bit rate                                 : 82 b/s
Count of elements                        : 1103
Compression mode                         : Lossless
Stream size                              : 55.2 KiB (0%)
Language                                 : Chinese
Default                                  : Yes
Forced                                   : No

Menu
00:00:00.000                             : en:00:00:00.000
00:06:37.480                             : en:00:06:37.480
00:15:50.115                             : en:00:15:50.115
00:29:35.732                             : en:00:29:35.732
00:40:13.869                             : en:00:40:13.869
00:49:02.648                             : en:00:49:02.648
01:00:34.047                             : en:01:00:34.047
01:13:26.902                             : en:01:13:26.902
01:21:35.515                             : en:01:21:35.515







回复下载:





游客,如果您要查看本帖隐藏内容请回复,如不想回复请点击赞助VIP贵宾:https://item.taobao.com/item.htm?id=540849877691


回复

使用道具 举报

1

主题

0

好友

3万

积分

永恒神话

Rank: 10Rank: 10Rank: 10

UID
133254
主题
1
金钱
13958
高清币
3555
鲜花
0
阅读权限
90
QQ
QQ
最后登录
2018-7-22
发表于 2017-11-29 10:57:45 |显示全部楼层
感谢楼主分享精彩电影!
回复

使用道具 举报

0

主题

0

好友

2万

积分

superstar

Rank: 9Rank: 9Rank: 9

UID
239416
主题
0
金钱
7971
高清币
3591
鲜花
0
阅读权限
90
QQ
QQ
最后登录
2018-7-12
发表于 2017-11-29 11:00:06 |显示全部楼层
感谢楼主分享精彩电影!
回复

使用道具 举报

0

主题

0

好友

168

积分

跑龙套

Rank: 1

UID
912855
主题
0
金钱
45
高清币
41
鲜花
0
阅读权限
10
QQ
QQ
最后登录
2018-1-30
发表于 2017-11-29 11:02:49 |显示全部楼层
[真实]13岁小少年艹25岁大姐姐使用DV录象尖叫淫淫!


我是少年我怕谁 缓缓的把滚烫巨根插入大姐姐的肉穴!






马上进入:[真实]13岁小少年艹25岁大姐姐使用DV录象尖叫淫淫!



======图片回复可見======
回复

使用道具 举报

0

主题

8

好友

7547

积分

金鸡奖主角

Rank: 5Rank: 5

UID
180106
主题
0
金钱
4251
高清币
687
鲜花
0
阅读权限
70
QQ
QQ
最后登录
2018-7-23
发表于 2017-11-29 11:10:33 |显示全部楼层
每天都来中国高清论坛看看有什么电影!
回复

使用道具 举报

0

主题

0

好友

982

积分

知名艺人

Rank: 2

UID
272174
主题
0
金钱
663
高清币
4
鲜花
0
阅读权限
20
QQ
QQ
最后登录
2018-7-23
发表于 2017-11-29 11:22:11 |显示全部楼层
每天都来中国高清论坛看看有什么电影!
回复

使用道具 举报

0

主题

1

好友

2万

积分

superstar

Rank: 9Rank: 9Rank: 9

UID
805378
主题
0
金钱
11045
高清币
1431
鲜花
0
阅读权限
90
QQ
QQ
最后登录
2018-7-23
发表于 2017-11-29 11:23:30 |显示全部楼层
FM2017 免安装绿色中文硬盘版v1[v17.31+已破解+爆棚汉化+头像等]
回复

使用道具 举报

1

主题

0

好友

2128

积分

人气偶像

Rank: 3Rank: 3

UID
483477
主题
1
金钱
1367
高清币
1
鲜花
0
阅读权限
30
QQ
QQ
最后登录
2018-7-23
发表于 2017-11-29 11:38:26 |显示全部楼层
楼主分享的高清电影太好了!
回复

使用道具 举报

0

主题

0

好友

3223

积分

天王巨星

Rank: 4

UID
313471
主题
0
金钱
2178
高清币
141
鲜花
0
阅读权限
50
QQ
QQ
最后登录
2018-7-23
发表于 2017-11-29 11:44:23 |显示全部楼层
既然你诚信诚意的推荐了,那我就勉为其难的看看吧!
回复

使用道具 举报

1

主题

3

好友

8万

积分

永恒神话

Rank: 10Rank: 10Rank: 10

UID
143192
主题
1
金钱
39318
高清币
5267
鲜花
0
阅读权限
90
QQ
QQ
最后登录
2018-7-23
发表于 2017-11-29 12:05:50 |显示全部楼层
每天都来中国高清论坛看看有什么电影!
回复

使用道具 举报

期待您加入中国高清论坛QQ交流6群:20818254
 懒得打字嘛,点击右侧快捷回复【左侧自定义内容】  【右侧自定义内容】
您需要登录后才可以回帖 登录 | 立即注册

回顶部