请选择 进入手机版 | 继续访问电脑版

中国高清论坛

 找回密码
 立即注册
查看: 5176|回复: 984

[剧情片] 玉蒲团之偷情宝鉴.[国粤双语.中英双字] Sex and Zen.1991.HK.BluRay.1920x1080p.x264.TrueHD.7.1.2Audios-KOO

  [复制链接]

342

主题

0

好友

6万

积分

高清发布组

Rank: 7Rank: 7Rank: 7

UID
346818
主题
342
金钱
4497
高清币
27142
鲜花
0
阅读权限
100
QQ
QQ
最后登录
2017-12-17
发表于 2017-12-2 13:42:35 |显示全部楼层



※※※※※※※ 影片信息 ※※※※※※※

◎片   名 玉蒲团之偷情宝鉴
◎译   名 Sex and Zen
◎年   代 1991
◎国   家 香港
◎类   别 情色 / 古装
◎语   言 粤语/国语
◎上映日 期 1991-11-30
◎字   幕 中英双字/简体字幕/繁体字幕/英文字幕
◎IMDB 评分  5.8/10 from 1701 users
◎豆瓣 评分  6.5/10 from 3918 users
◎视频尺 寸  1920x1080p
◎片   长 1.34.07
◎导   演 麦当杰
◎编     剧  李英杰
◎主   演 吴启华 / 叶子楣 / 郑则仕 / 徐锦江 / 周弘




◎简  介

  未央生(吴启华 饰)自认为风流倜傥一表人才,在他看来,凭借着自己的才识与外貌,通天下美女享尽鱼水之欢简直不是梦想。然而,一位老僧却告诉未央生,根据应果报应的定律,他如今所作的荒诞淫乱的一切,最后终将报应到他和他的家人身上。
  尽管并不相信老僧所言,但未央生的内心里还是有一丝隐隐的不安,于是,他娶了大户人家的女儿(叶子楣 饰)为妻,希望贤良淑德的她能够守好死自己的本分。婚后,眼看着一切都风平浪静的未央生放下心来,开始了自己花天酒地的荒淫生活,甚至让屠户(郑则仕 饰)帮助自己改造下体,以获得更大的快感。而之后发生的一切,令未央生想起一句老话——不是不报,时候未到。


※※※※※※※ 参数信息 ※※※※※※※


General
Unique ID                      : 210191312140426223679554286320926080196 (0x9E215FCC3C2A6801A858B02790443CC4)

Format                         : Matroska
Format version                 : Version 4 / Version 2
File size                      : 10.6 GiB
Duration                       : 1 h 34 min
Overall bit rate mode          : Variable
Overall bit rate               : 16.1 Mb/s
Encoded date                   : UTC 2017-12-02 01:10:26
Writing application            : mkvmerge v9.4.2 ('So High') 64bit
Writing library                : libebml v1.3.4 + libmatroska v1.4.5
Attachments                    : 正式海报.jpg

Video
ID                             : 1
Format                         : AVC
Format/Info                    : Advanced Video Codec
Format profile                 : Main@L4.1
Format settings, CABAC         : Yes
Format settings, ReFrames      : 1 frame
Format settings, GOP           : M=1, N=12
Codec ID                       : V_MPEG4/ISO/AVC
Duration                       : 1 h 34 min
Bit rate                       : 13.5 Mb/s
Width                          : 1 920 pixels
Height                         : 1 080 pixels
Display aspect ratio           : 16:9
Frame rate mode                : Constant
Frame rate                     : 23.976 (23976/1000) FPS
Color space                    : YUV
Chroma subsampling             : 4:2:0
Bit depth                      : 8 bits
Scan type                      : Progressive
Bits/(Pixel*Frame)             : 0.272
Stream size                    : 8.86 GiB (84%)
Title                          : kook
Writing library                : x264 core 125
Encoding settings              : cabac=1 / ref=1 / deblock=1:0:0 / analyse=0x1:0x131 / me=hex / subme=6 / psy=1 / psy_rd=1.00:0.00 / mixed_ref=0 / me_range=16 / chroma_me=1 / trellis=0 / 8x8dct=0 / cqm=0 / deadzone=21,11 / fast_pskip=1 / chroma_qp_offset=-2 / threads=4 / lookahead_threads=1 / sliced_threads=0 / nr=0 / decimate=1 / interlaced=0 / bluray_compat=0 / constrained_intra=0 / bframes=0 / weightp=2 / keyint=12 / keyint_min=7 / scenecut=40 / intra_refresh=0 / rc_lookahead=12 / rc=abr / mbtree=1 / bitrate=13500 / ratetol=1.0 / qcomp=0.60 / qpmin=6 / qpmax=51 / qpstep=4 / ip_ratio=1.40 / aq=1:1.00
Language                       : Chinese
Default                        : Yes
Forced                         : No

Audio #1
ID                             : 2
Format                         : TrueHD
Codec ID                       : A_TRUEHD
Duration                       : 1 h 33 min
Bit rate mode                  : Variable
Bit rate                       : 2 379 kb/s
Maximum bit rate               : 3 663 kb/s
Channel(s)                     : 8 channels
Channel positions              : Front: L C R, Side: L R, Back: L R, LFE
Sampling rate                  : 48.0 kHz
Frame rate                     : 1 200.000 FPS (40 spf)
Compression mode               : Lossless
Stream size                    : 1.56 GiB (15%)
Title                          : 粤语
Language                       : Chinese
Default                        : Yes
Forced                         : No

Audio #2
ID                             : 3
Format                         : AC-3
Format/Info                    : Audio Coding 3
Mode extension                 : CM (complete main)
Format settings, Endianness    : Big
Codec ID                       : A_AC3
Duration                       : 1 h 33 min
Bit rate mode                  : Constant
Bit rate                       : 192 kb/s
Channel(s)                     : 2 channels
Channel positions              : Front: L R
Sampling rate                  : 48.0 kHz
Frame rate                     : 31.250 FPS (1536 spf)
Compression mode               : Lossy
Stream size                    : 129 MiB (1%)
Title                          : 国语
Language                       : Chinese
Default                        : No
Forced                         : No

Text #1
ID                             : 4
Format                         : ASS
Codec ID                       : S_TEXT/ASS
Codec ID/Info                  : Advanced Sub Station Alpha
Duration                       : 1 h 33 min
Bit rate                       : 123 b/s
Count of elements              : 691
Compression mode               : Lossless
Stream size                    : 84.1 KiB (0%)
Title                          : 中英字幕
Language                       : Chinese
Default                        : Yes
Forced                         : No

Text #2
ID                             : 5
Format                         : ASS
Codec ID                       : S_TEXT/ASS
Codec ID/Info                  : Advanced Sub Station Alpha
Duration                       : 1 h 33 min
Bit rate                       : 61 b/s
Count of elements              : 691
Compression mode               : Lossless
Stream size                    : 41.9 KiB (0%)
Title                          : 简体字幕
Language                       : Chinese
Default                        : No
Forced                         : No

Text #3
ID                             : 6
Format                         : ASS
Codec ID                       : S_TEXT/ASS
Codec ID/Info                  : Advanced Sub Station Alpha
Duration                       : 1 h 33 min
Bit rate                       : 61 b/s
Count of elements              : 691
Compression mode               : Lossless
Stream size                    : 41.9 KiB (0%)
Title                          : 繁体字幕
Language                       : Chinese
Default                        : No
Forced                         : No

Text #4
ID                             : 7
Format                         : ASS
Codec ID                       : S_TEXT/ASS
Codec ID/Info                  : Advanced Sub Station Alpha
Duration                       : 1 h 33 min
Bit rate                       : 88 b/s
Count of elements              : 691
Compression mode               : Lossless
Stream size                    : 60.0 KiB (0%)
Title                          : 英文字幕
Language                       : English
Default                        : No
Forced                         : No




玉蒲团之偷情宝鉴.Sex and Zen.1991.HK.BluRay.1920x1080p.x264.TrueHD.7.1.2Audios-K.torrent

122.29 KB, 下载次数: 1393, 下载积分: 高清币 -2

售价: 2 高清币  [记录]

回复

使用道具 举报

0

主题

0

好友

1538

积分

人气偶像

Rank: 3Rank: 3

UID
316756
主题
0
金钱
1087
高清币
-1
鲜花
0
阅读权限
30
QQ
QQ
最后登录
2017-12-11
发表于 2017-12-2 13:49:07 |显示全部楼层
一代经典啊!!!!!!!
回复

使用道具 举报

0

主题

0

好友

1039

积分

人气偶像

Rank: 3Rank: 3

UID
432453
主题
0
金钱
776
高清币
4
鲜花
0
阅读权限
30
QQ
QQ
最后登录
2017-12-15
发表于 2017-12-2 13:52:49 |显示全部楼层
楼主分享的高清电影太好了!
回复

使用道具 举报

0

主题

0

好友

48

积分

跑龙套

Rank: 1

UID
428809
主题
0
金钱
35
高清币
3
鲜花
0
阅读权限
10
QQ
QQ
最后登录
2017-12-2
发表于 2017-12-2 13:54:09 |显示全部楼层
感谢楼主分享
回复

使用道具 举报

0

主题

0

好友

2268

积分

人气偶像

Rank: 3Rank: 3

UID
238299
主题
0
金钱
1495
高清币
18
鲜花
0
阅读权限
30
QQ
QQ
最后登录
2017-12-14
发表于 2017-12-2 13:56:50 |显示全部楼层
感谢楼主分享精彩电影!
回复

使用道具 举报

1

主题

0

好友

3091

积分

天王巨星

Rank: 4

UID
398393
主题
1
金钱
2586
高清币
21
鲜花
0
阅读权限
50
QQ
QQ
最后登录
2017-12-15
发表于 2017-12-2 14:00:21 |显示全部楼层
感谢楼主分享 谢谢
回复

使用道具 举报

0

主题

0

好友

7446

积分

金鸡奖主角

Rank: 5Rank: 5

UID
279396
主题
0
金钱
4446
高清币
65
鲜花
0
阅读权限
70
QQ
QQ
最后登录
2017-12-17
发表于 2017-12-2 14:01:32 |显示全部楼层
来中国高清论坛看看
回复

使用道具 举报

0

主题

0

好友

338

积分

知名艺人

Rank: 2

UID
911402
主题
0
金钱
197
高清币
0
鲜花
0
阅读权限
20
QQ
QQ
最后登录
2017-12-16
发表于 2017-12-2 14:02:26 |显示全部楼层
xiexiexieixeixeixiexiexi
回复

使用道具 举报

0

主题

0

好友

338

积分

知名艺人

Rank: 2

UID
911402
主题
0
金钱
197
高清币
0
鲜花
0
阅读权限
20
QQ
QQ
最后登录
2017-12-16
发表于 2017-12-2 14:03:01 |显示全部楼层
每天都来中国高清论坛看看有什么电影!
回复

使用道具 举报

0

主题

0

好友

1237

积分

人气偶像

Rank: 3Rank: 3

UID
395209
主题
0
金钱
816
高清币
10
鲜花
0
阅读权限
30
最后登录
2017-12-16
发表于 2017-12-2 14:05:38 |显示全部楼层
楼主分享的高清电影太好了!
回复

使用道具 举报

期待您加入中国高清论坛QQ交流1群:197652384
 懒得打字嘛,点击右侧快捷回复【左侧自定义内容】  【右侧自定义内容】
您需要登录后才可以回帖 登录 | 立即注册

回顶部