请选择 进入手机版 | 继续访问电脑版

中国高清论坛

 找回密码
 立即注册
查看: 4183|回复: 1598

[战争片] 敦刻尔克/敦刻尔克大撤退/敦克尔克大行动(台)/邓寇克大行动(港) Dunkirk.2017.1080p.BluRay.x264-SPARKS 8.74

  [复制链接]

325

主题

0

好友

10万

积分

高清发布组

Rank: 7Rank: 7Rank: 7

UID
209239
主题
325
金钱
3026
高清币
52760
鲜花
0
阅读权限
100
最后登录
2017-12-16
发表于 2017-12-5 11:21:24 |显示全部楼层
本帖最后由 第三杯酒 于 2017-12-5 11:22 编辑

b11e128c23a4b725.jpg

◎译  名 敦刻尔克/敦刻尔克大撤退/敦克尔克大行动(台)/邓寇克大行动(港)
◎片  名 Dunkirk
◎年  代 2017
◎产  地 英国/法国/美国/荷兰
◎类  别 剧情/历史/战争
◎语  言 英语/法语/德语
◎上映日期 2017-07-13(伦敦首映)/2017-07-21(美国)/2017-09-01(中国大陆)
◎IMDb评分  8.3/10 from 238,310 users
◎IMDb链接  http://www.imdb.com/title/tt5013056/
◎豆瓣评分 8.6/10 from 230,479 users
◎豆瓣链接 https://movie.douban.com/subject/26607693/
◎片  长 107分钟
◎导  演 克里斯托弗·诺兰 Christopher Nolan
◎主  演 菲恩·怀特海德 Fionn Whitehead
      汤姆·格林-卡尼 Tom Glynn-Carney
      杰克·劳登 Jack Lowden
      哈里·斯泰尔斯 Harry Styles
      阿纽林·巴纳德 Aneurin Barnard
      汤姆·哈迪 Tom Hardy
      马克·里朗斯 Mark Rylance
      巴里·基奥汉 Barry Keoghan
      基里安·墨菲 Cillian Murphy
      詹姆斯·达西 James D'Arcy
      肯尼思·布拉纳 Kenneth Branagh
      李·阿姆斯特朗 Lee Armstrong
      詹姆斯·布鲁尔 James Bloor
      达米安·勃纳尔 Damien Bonnard
      布莱恩·威纳尔 Brian Vernel
      哈利·理查森 Harry Richardson
      艾略特·提特恩索 Elliott Tittensor
      凯文·格思里 Kevin Guthrie
      巴比·洛克伍德 Bobby Lockwood
      米歇尔·贝尔 Michel Biel
      比利·豪尔 Billy Howle
      迈克尔·凯恩 Michael Caine
      约翰·诺兰 John Nolan
      米兰达·诺兰 Miranda Nolan

◎简  介

  故事改编自著名的二战军事事件“敦刻尔克大撤退”。二战初期,40万英法盟军被敌军围困于敦刻尔克的海滩之上,面对敌军步步逼近的绝境,形势万分危急。英国政府和海军发动大批船员,动员人民起来营救军队。
  英国士兵汤米(菲昂·怀特海德 Fionn Whitehead 饰)在逃离海滩的过程中相继结识吉布森与亚历克斯,同时民用船主道森先生(马克·里朗斯 Mark Rylance 饰)与儿子彼得、17岁少年乔治也离开英国,去往敦刻尔克拯救士兵。三人陆续搭救了海军(基里安·墨菲 Cillian Murphy 饰)、飞行员柯林斯及汤米一行人,而战斗机飞行员法瑞尔(汤姆·哈迪 Tom Hardy 饰)则在被敌人双面夹击的艰难情形下顽强战斗。
  影片的故事从陆、海、空三个角度讲述,在德国军队的包围下,每个人不得不为自己的命运背水一战,才有可能活着回家。
  1. 1080P:
  2. Video
  3. ID                                       : 1
  4. Format                                   : AVC
  5. Format/Info                              : Advanced Video Codec
  6. Format profile                           : High@L4.1
  7. Format settings                          : CABAC / 4 Ref Frames
  8. Format settings, CABAC                   : Yes
  9. Format settings, RefFrames               : 4 frames
  10. Codec ID                                 : V_MPEG4/ISO/AVC
  11. Duration                                 : 1 h 46 min
  12. Bit rate                                 : 10.2 Mb/s
  13. Width                                    : 1 920 pixels
  14. Height                                   : 1 080 pixels
  15. Display aspect ratio                     : 16:9
  16. Frame rate mode                          : Constant
  17. Frame rate                               : 23.976 (24000/1001) FPS
  18. Color space                              : YUV
  19. Chroma subsampling                       : 4:2:0
  20. Bit depth                                : 8 bits
  21. Scan type                                : Progressive
  22. Bits/(Pixel*Frame)                       : 0.206
  23. Stream size                              : 7.61 GiB (87%)
  24. Writing library                          : x264 core 152 r2851 ba24899
  25. Encoding settings                        : cabac=1 / ref=4 / deblock=1:-3:-3 / analyse=0x3:0x113 / me=umh / subme=8 / psy=1 / psy_rd=1.00:0.00 / mixed_ref=1 / me_range=16 / chroma_me=1 / trellis=1 / 8x8dct=1 / cqm=0 / deadzone=21,11 / fast_pskip=1 / chroma_qp_offset=-2 / threads=30 / lookahead_threads=5 / sliced_threads=0 / nr=0 / decimate=1 / interlaced=0 / bluray_compat=0 / constrained_intra=0 / bframes=3 / b_pyramid=2 / b_adapt=1 / b_bias=0 / direct=3 / weightb=1 / open_gop=0 / weightp=2 / keyint=240 / keyint_min=24 / scenecut=40 / intra_refresh=0 / rc_lookahead=50 / rc=2pass / mbtree=1 / bitrate=10225 / ratetol=1.0 / qcomp=0.60 / qpmin=0 / qpmax=69 / qpstep=4 / cplxblur=20.0 / qblur=0.5 / ip_ratio=1.40 / aq=1:1.00
  26. Default                                  : Yes
  27. Forced                                   : No

  28. Audio
  29. ID                                       : 2
  30. Format                                   : DTS
  31. Format/Info                              : Digital Theater Systems
  32. Mode                                     : 16
  33. Format settings, Endianness              : Big
  34. Codec ID                                 : A_DTS
  35. Duration                                 : 1 h 46 min
  36. Bit rate mode                            : Constant
  37. Bit rate                                 : 1 509 kb/s
  38. Channel(s)                               : 6 channels
  39. Channel positions                        : Front: L C R, Side: L R, LFE
  40. Sampling rate                            : 48.0 kHz
  41. Frame rate                               : 93.750 FPS (512 SPF)
  42. Bit depth                                : 24 bits
  43. Compression mode                         : Lossy
  44. Stream size                              : 1.12 GiB (13%)
  45. Language                                 : English
  46. Default                                  : Yes
  47. Forced                                   : No

  48. Text #1
  49. ID                                       : 3
  50. Format                                   : UTF-8
  51. Codec ID                                 : S_TEXT/UTF8
  52. Codec ID/Info                            : UTF-8 Plain Text
  53. Duration                                 : 1 h 43 min
  54. Bit rate                                 : 24 b/s
  55. Count of elements                        : 694
  56. Stream size                              : 18.5 KiB (0%)
  57. Language                                 : English
  58. Default                                  : No
  59. Forced                                   : No

  60. Text #2
  61. ID                                       : 4
  62. Format                                   : UTF-8
  63. Codec ID                                 : S_TEXT/UTF8
  64. Codec ID/Info                            : UTF-8 Plain Text
  65. Duration                                 : 1 h 45 min
  66. Bit rate                                 : 29 b/s
  67. Count of elements                        : 859
  68. Stream size                              : 22.7 KiB (0%)
  69. Title                                    : SDH
  70. Language                                 : English
  71. Default                                  : No
  72. Forced                                   : No

  73. Menu
  74. 00:00:00.000                             : en:00:00:00.000
  75. 00:08:51.364                             : en:00:08:51.364
  76. 00:20:13.754                             : en:00:20:13.754
  77. 00:29:07.621                             : en:00:29:07.621
  78. 00:42:35.261                             : en:00:42:35.261
  79. 00:52:48.207                             : en:00:52:48.207
  80. 01:04:32.827                             : en:01:04:32.827
  81. 01:12:50.825                             : en:01:12:50.825
  82. 01:25:55.025                             : en:01:25:55.025
  83. 01:33:23.348                             : en:01:33:23.348
  84. 01:39:13.906                             : en:01:39:13.906
复制代码
游客,如果您要查看本帖隐藏内容请回复

回复

使用道具 举报

0

主题

1

好友

4519

积分

天王巨星

Rank: 4

UID
523042
主题
0
金钱
2694
高清币
21
鲜花
0
阅读权限
50
QQ
QQ
最后登录
2017-12-17
发表于 2017-12-5 11:23:10 |显示全部楼层
楼主分享的高清电影太好了!
回复

使用道具 举报

1

主题

0

好友

1082

积分

人气偶像

Rank: 3Rank: 3

UID
497185
主题
1
金钱
788
高清币
14
鲜花
0
阅读权限
30
QQ
QQ
最后登录
2017-12-16
发表于 2017-12-5 11:24:21 |显示全部楼层

每天都来中国高清论坛看看有什么电影!
回复

使用道具 举报

0

主题

0

好友

3166

积分

天王巨星

Rank: 4

UID
221166
主题
0
金钱
1422
高清币
521
鲜花
0
阅读权限
50
QQ
QQ
最后登录
2017-12-17
发表于 2017-12-5 11:24:23 |显示全部楼层
感谢楼主分享精彩电影!
回复

使用道具 举报

0

主题

0

好友

6144

积分

金鸡奖主角

Rank: 5Rank: 5

UID
304078
主题
0
金钱
2972
高清币
633
鲜花
0
阅读权限
70
QQ
QQ
最后登录
2017-12-15
发表于 2017-12-5 11:25:42 |显示全部楼层
这像是真的,谢谢了。
回复

使用道具 举报

0

主题

0

好友

3258

积分

天王巨星

Rank: 4

UID
380641
主题
0
金钱
2465
高清币
125
鲜花
0
阅读权限
50
QQ
QQ
最后登录
2017-12-17
发表于 2017-12-5 11:27:56 |显示全部楼层
感谢楼主分享精彩电影!
回复

使用道具 举报

0

主题

0

好友

3487

积分

天王巨星

Rank: 4

UID
93121
主题
0
金钱
3137
高清币
3
鲜花
0
阅读权限
50
QQ
QQ
最后登录
2017-12-17
发表于 2017-12-5 11:28:18 |显示全部楼层
楼主辛苦了,谢谢分享
回复

使用道具 举报

1

主题

0

好友

382

积分

知名艺人

Rank: 2

UID
910765
主题
1
金钱
190
高清币
74
鲜花
0
阅读权限
20
QQ
QQ
最后登录
2017-12-15
发表于 2017-12-5 11:30:13 |显示全部楼层
不错,出来了就好,先解馋,等国配版本。
回复

使用道具 举报

3

主题

3

好友

2440

积分

人气偶像

Rank: 3Rank: 3

UID
94046
主题
3
金钱
1804
高清币
52
鲜花
0
阅读权限
30
QQ
QQ
最后登录
2017-12-13
发表于 2017-12-5 11:30:23 |显示全部楼层
每天都来中国高清论坛看看有什么电影!
回复

使用道具 举报

0

主题

0

好友

3万

积分

永恒神话

Rank: 10Rank: 10Rank: 10

UID
116520
主题
0
金钱
14318
高清币
6556
鲜花
0
阅读权限
90
QQ
QQ
最后登录
2017-12-17
发表于 2017-12-5 11:30:45 |显示全部楼层
每天都来中国高清论坛看看有什么电影!
回复

使用道具 举报

期待您加入中国高清论坛QQ交流1群:197652384
 懒得打字嘛,点击右侧快捷回复【左侧自定义内容】  【右侧自定义内容】
您需要登录后才可以回帖 登录 | 立即注册

回顶部