请选择 进入手机版 | 继续访问电脑版

中国高清论坛

 找回密码
 立即注册
查看: 469|回复: 113

[犯罪片] 好家伙/盗亦有道(港)/四海好家伙(台) Goodfellas1990.2160p.BluRay.x265.10bit.HDR.DTS-SWTYBLZ 中字34.76GB

  [复制链接]

661

主题

0

好友

2万

积分

BT发布组

Rank: 8Rank: 8

UID
610038
主题
661
金钱
1758
高清币
12180
鲜花
0
阅读权限
150
QQ
QQ
最后登录
2017-12-17
发表于 2017-12-6 21:06:29 |显示全部楼层
本帖最后由 ccbby 于 2017-12-6 21:22 编辑







◎译  名 好家伙/盗亦有道(港)/四海好家伙(台)
◎片  名 Goodfellas
◎年  代 1990
◎产  地 美国
◎类  别 剧情/传记/犯罪
◎语  言 英语/意大利语
◎上映日期 1990-09-09(威尼斯电影节)/1990-09-19(美国)
◎IMDb评分  8.7/10 from 809,816 users
◎豆瓣评分 8.3/10 from 53,404 users
◎片  长 146分钟
◎导  演 马丁·斯科塞斯 Martin Scorsese
◎主  演 罗伯特·德尼罗 Robert De Niro
      雷·利奥塔 Ray Liotta
      乔·佩西 Joe Pesci
      洛南·布雷科 Lorraine Bracco
      保罗·索维诺 Paul Sorvino
      弗兰克·西维罗 Frank Sivero
      托尼·戴劳 Tony Darrow
      迈克·斯塔尔 Mike Starr
      弗兰克·文森特 Frank Vincent
      查克劳 Chuck Low
      弗兰克·迪莱奥 Frank DiLeo
      尼杨曼 Henny Youngman
      吉娜·马斯特罗吉科莫 Gina Mastrogiacomo
      凯瑟琳·斯科塞斯 Catherine Scorsese
      查尔斯·斯科西斯 Charles Scorsese
      苏珊妮·谢泼德 Suzanne Shepherd
      黛比·玛扎 Debi Mazar
      塞缪尔·杰克逊 Samuel L. Jackson

◎简  介

  本片根据真实故事改编,讲述了纽约黑手党血腥的江湖恩怨,把所谓的“江湖道义”还原为人性的丑陋与贪婪。
  亨利•希尔(雷•李欧塔 饰)从小不学无术,跟着老大保利,靠收取保护费、走私、抢劫,他娶了美丽的妻子凯伦,有可爱的女儿,迷人的情妇,名车豪宅,生活优渥。
  吉米•康维(罗伯特•德尼罗 饰)和汤米(乔•佩西 饰)是亨利的好朋友,三人一起经历和很多事情:杀死羞辱汤米的意大利黑手党头领比利•贝兹;策划德航劫案,并干掉同伙,私吞赃款;甚至背着老大保利贩毒。
  当然,他们的生活,除了享受金钱带来的权势之外,更多的,是朝不保夕的动荡:汤米因为比利•贝兹的死,被人枪杀;亨利自己因为贩毒被警方逮捕,其他人也受到牵连。
  凯伦想尽办法将亨利保释出来,此时他们已经一无所有,被人孤立,危机四伏。他们要想尽办法活下去,无论以怎样的方式,付出怎样的代价……

◎获奖情况

  第63届奥斯卡金像奖  (1991)
  最佳影片(提名) 艾文·温克勒
  最佳导演(提名) 马丁·斯科塞斯
  最佳男配角 乔·佩西
  最佳女配角(提名) 洛南·布雷科
  最佳改编剧本(提名) 马丁·斯科塞斯 / 尼古拉斯·派勒吉
  最佳剪辑(提名) 塞尔玛·斯昆梅克

  第47届威尼斯电影节  (1990)
  主竞赛单元 金狮奖 (提名) 马丁·斯科塞斯
  银狮奖 最佳导演 马丁·斯科塞斯


Video
ID                                       : 1
Format                                   : HEVC
Format/Info                              : High Efficiency Video Coding
Format profile                           : Main 10@L5.1@High
Codec ID                                 : V_MPEGH/ISO/HEVC
Duration                                 : 2 h 25 min
Bit rate                                 : 28.9 Mb/s
Width                                    : 3 840 pixels
Height                                   : 2 160 pixels
Display aspect ratio                     : 16:9
Frame rate mode                          : Constant
Frame rate                               : 23.976 (24000/1001) FPS
Color space                              : YUV
Chroma subsampling                       : 4:2:0 (Type 2)
Bit depth                                : 10 bits
Bits/(Pixel*Frame)                       : 0.146
Stream size                              : 29.4 GiB (85%)
Title                                    : Goodfellas.1990.2160p.BluRay.x265.10bit.HDR.DTS-HD.MA.5.1-SWTYBLZ
Writing library                          : x265 2.5b4a5bcfe29c7:[Windows][GCC 4.9.3][64 bit] 10bit
Encoding settings                        : cpuid=1173503 / frame-threads=16 / numa-pools=24,24,24,24 / wpp / no-pmode / no-pme / no-psnr / no-ssim / log-level=2 / input-csp=1 / input-res=3840x2160 / interlace=0 / total-frames=0 / level-idc=51 / high-tier=1 / uhd-bd=1 / ref=3 / no-allow-non-conformance / repeat-headers / annexb / aud / hrd / info / hash=0 / no-temporal-layers / no-open-gop / min-keyint=1 / keyint=24 / bframes=4 / b-adapt=2 / b-pyramid / bframe-bias=0 / rc-lookahead=25 / lookahead-slices=4 / scenecut=40 / no-intra-refresh / ctu=64 / min-cu-size=8 / no-rect / no-amp / max-tu-size=32 / tu-inter-depth=1 / tu-intra-depth=1 / limit-tu=0 / rdoq-level=0 / dynamic-rd=0.00 / no-ssim-rd / signhide / no-tskip / nr-intra=0 / nr-inter=0 / no-constrained-intra / strong-intra-smoothing / max-merge=2 / limit-refs=3 / no-limit-modes / me=1 / subme=2 / merange=57 / temporal-mvp / weightp / no-weightb / no-analyze-src-pics / deblock=0:0 / no-sao / no-sao-non-deblock / rd=3 / no-early-skip / rskip / no-fast-intra / no-tskip-fast / no-cu-lossless / no-b-intra / rdpenalty=0 / psy-rd=2.00 / psy-rdoq=0.00 / no-rd-refine / analysis-reuse-mode=0 / no-lossless / cbqpoffs=0 / crqpoffs=0 / rc=crf / crf=18.0 / qcomp=0.60 / qpstep=4 / stats-write=0 / stats-read=0 / vbv-maxrate=160000 / vbv-bufsize=160000 / vbv-init=0.9 / crf-max=0.0 / crf-min=0.0 / ipratio=1.40 / pbratio=1.30 / aq-mode=1 / aq-strength=1.00 / cutree / zone-count=0 / no-strict-cbr / qg-size=32 / no-rc-grain / qpmax=69 / qpmin=0 / no-const-vbv / sar=1 / overscan=0 / videoformat=5 / range=0 / colorprim=9 / transfer=16 / colormatrix=9 / chromaloc=1 / chromaloc-top=2 / chromaloc-bottom=2 / display-window=0 / master-display=G(13250,34500)B(7500,3000)R(34000,16000)WP(15635,16450)L(40000000,50) / max-cll=500,200 / min-luma=0 / max-luma=1023 / log2-max-poc-lsb=8 / vui-timing-info / vui-hrd-info / slices=1 / opt-qp-pps / opt-ref-list-length-pps / no-multi-pass-opt-rps / scenecut-bias=0.05 / no-opt-cu-delta-qp / no-aq-motion / hdr / hdr-opt / no-dhdr10-opt / analysis-reuse-level=5 / scale-factor=0 / refine-intra=0 / refine-inter=0 / refine-mv=0 / no-limit-sao / ctu-info=0
Language                                 : English
Default                                  : Yes
Forced                                   : No
Color range                              : Limited
Color primaries                          : BT.2020
Transfer characteristics                 : PQ
Matrix coefficients                      : BT.2020 non-constant
Mastering display color primaries        : R: x=0.680000 y=0.320000, G: x=0.265000 y=0.690000, B: x=0.150000 y=0.060000, White point: x=0.312700 y=0.329000
Mastering display luminance              : min: 0.0050 cd/m2, max: 4000.0000 cd/m2
Maximum Content Light Level              : 500 cd/m2
Maximum Frame-Average Light Level        : 200 cd/m2

Audio #1
ID                                       : 2
Format                                   : DTS
Format/Info                              : Digital Theater Systems
Format profile                           : MA / Core
Codec ID                                 : A_DTS
Duration                                 : 2 h 25 min
Bit rate mode                            : Variable / Constant
Bit rate                                 : 4 000 kb/s / 1 509 kb/s
Channel(s)                               : 6 channels
Channel positions                        : Front: L C R, Side: L R, LFE
Sampling rate                            : 48.0 kHz
Frame rate                               : 93.750 FPS (512 SPF)
Bit depth                                : 24 bits
Compression mode                         : Lossless / Lossy
Stream size                              : 4.06 GiB (12%)
Title                                    : Goodfellas.1990.2160p.BluRay.x265.10bit.HDR.DTS-HD.MA.5.1-SWTYBLZ
Language                                 : English
Default                                  : Yes
Forced                                   : No

Audio #2
ID                                       : 3
Format                                   : AC-3
Format/Info                              : Audio Coding 3
Codec ID                                 : A_AC3
Duration                                 : 2 h 25 min
Bit rate mode                            : Constant
Bit rate                                 : 640 kb/s
Channel(s)                               : 6 channels
Channel positions                        : Front: L C R, Side: L R, LFE
Sampling rate                            : 48.0 kHz
Frame rate                               : 31.250 FPS (1536 SPF)
Bit depth                                : 16 bits
Compression mode                         : Lossy
Stream size                              : 665 MiB (2%)
Language                                 : English
Service kind                             : Complete Main
Default                                  : No
Forced                                   : No

Text #1
ID                                       : 4
Format                                   : UTF-8
Codec ID                                 : S_TEXT/UTF8
Codec ID/Info                            : UTF-8 Plain Text
Duration                                 : 2 h 18 min
Bit rate                                 : 85 b/s
Count of elements                        : 2075
Stream size                              : 86.5 KiB (0%)
Title                                    : English-SRT
Language                                 : English
Default                                  : Yes
Forced                                   : No

Text #2
ID                                       : 5
Format                                   : PGS
Muxing mode                              : zlib
Codec ID                                 : S_HDMV/PGS
Codec ID/Info                            : Picture based subtitle format used on BDs/HD-DVDs
Duration                                 : 2 h 24 min
Bit rate                                 : 50.9 kb/s
Count of elements                        : 4388
Stream size                              : 52.5 MiB (0%)
Title                                    : English-SDH-PGS
Language                                 : English
Default                                  : No
Forced                                   : No

Text #3
ID                                       : 6
Format                                   : PGS
Muxing mode                              : zlib
Codec ID                                 : S_HDMV/PGS
Codec ID/Info                            : Picture based subtitle format used on BDs/HD-DVDs
Duration                                 : 2 h 24 min
Bit rate                                 : 39.7 kb/s
Count of elements                        : 3970
Stream size                              : 41.1 MiB (0%)
Title                                    : French-PGS
Language                                 : French
Default                                  : No
Forced                                   : No

Text #4
ID                                       : 7
Format                                   : PGS
Muxing mode                              : zlib
Codec ID                                 : S_HDMV/PGS
Codec ID/Info                            : Picture based subtitle format used on BDs/HD-DVDs
Duration                                 : 2 h 24 min
Bit rate                                 : 44.7 kb/s
Count of elements                        : 4552
Stream size                              : 46.4 MiB (0%)
Title                                    : German-SDH-PGS
Language                                 : German
Default                                  : No
Forced                                   : No

Text #5
ID                                       : 8
Format                                   : PGS
Muxing mode                              : zlib
Codec ID                                 : S_HDMV/PGS
Codec ID/Info                            : Picture based subtitle format used on BDs/HD-DVDs
Duration                                 : 2 h 24 min
Bit rate                                 : 45.4 kb/s
Count of elements                        : 4422
Stream size                              : 47.0 MiB (0%)
Title                                    : Italian-SDH-PGS
Language                                 : Italian
Default                                  : No
Forced                                   : No

Text #6
ID                                       : 9
Format                                   : PGS
Muxing mode                              : zlib
Codec ID                                 : S_HDMV/PGS
Codec ID/Info                            : Picture based subtitle format used on BDs/HD-DVDs
Duration                                 : 2 h 24 min
Bit rate                                 : 41.5 kb/s
Count of elements                        : 4034
Stream size                              : 42.9 MiB (0%)
Title                                    : Spanish-Castilian-PGS
Language                                 : Spanish
Default                                  : No
Forced                                   : No

Text #7
ID                                       : 10
Format                                   : PGS
Muxing mode                              : zlib
Codec ID                                 : S_HDMV/PGS
Codec ID/Info                            : Picture based subtitle format used on BDs/HD-DVDs
Duration                                 : 2 h 24 min
Bit rate                                 : 38.4 kb/s
Count of elements                        : 3868
Stream size                              : 39.7 MiB (0%)
Title                                    : Dutch-PGS
Language                                 : Dutch
Default                                  : No
Forced                                   : No

Text #8
ID                                       : 11
Format                                   : PGS
Muxing mode                              : zlib
Codec ID                                 : S_HDMV/PGS
Codec ID/Info                            : Picture based subtitle format used on BDs/HD-DVDs
Duration                                 : 2 h 24 min
Bit rate                                 : 41.4 kb/s
Count of elements                        : 4222
Stream size                              : 42.9 MiB (0%)
Title                                    : Chinese-Mandarin-Traditional-PGS
Language                                 : Chinese
Default                                  : No
Forced                                   : No

Text #9
ID                                       : 12
Format                                   : PGS
Muxing mode                              : zlib
Codec ID                                 : S_HDMV/PGS
Codec ID/Info                            : Picture based subtitle format used on BDs/HD-DVDs
Duration                                 : 2 h 24 min
Bit rate                                 : 39.8 kb/s
Count of elements                        : 3968
Stream size                              : 41.1 MiB (0%)
Title                                    : Chinese-Mandarin-Simplified)-PGS
Language                                 : Chinese
Default                                  : No
Forced                                   : No

Text #10
ID                                       : 13
Format                                   : PGS
Muxing mode                              : zlib
Codec ID                                 : S_HDMV/PGS
Codec ID/Info                            : Picture based subtitle format used on BDs/HD-DVDs
Duration                                 : 2 h 24 min
Bit rate                                 : 39.2 kb/s
Count of elements                        : 3960
Stream size                              : 40.6 MiB (0%)
Title                                    : Chinese-Cantonese-PGS
Language                                 : Chinese
Default                                  : No
Forced                                   : No

Text #11
ID                                       : 14
Format                                   : PGS
Muxing mode                              : zlib
Codec ID                                 : S_HDMV/PGS
Codec ID/Info                            : Picture based subtitle format used on BDs/HD-DVDs
Duration                                 : 2 h 24 min
Bit rate                                 : 34.0 kb/s
Count of elements                        : 4198
Stream size                              : 35.2 MiB (0%)
Title                                    : Korean-PGS
Language                                 : Korean
Default                                  : No
Forced                                   : No

Text #12
ID                                       : 15
Format                                   : PGS
Muxing mode                              : zlib
Codec ID                                 : S_HDMV/PGS
Codec ID/Info                            : Picture based subtitle format used on BDs/HD-DVDs
Duration                                 : 2 h 24 min
Bit rate                                 : 39.0 kb/s
Count of elements                        : 4122
Stream size                              : 40.3 MiB (0%)
Title                                    : Spanish-Latin American-PGS
Language                                 : Spanish
Default                                  : No
Forced                                   : No

Text #13
ID                                       : 16
Format                                   : PGS
Muxing mode                              : zlib
Codec ID                                 : S_HDMV/PGS
Codec ID/Info                            : Picture based subtitle format used on BDs/HD-DVDs
Duration                                 : 2 h 24 min
Bit rate                                 : 42.2 kb/s
Count of elements                        : 3862
Stream size                              : 43.6 MiB (0%)
Title                                    : Portuguese-Brazilian-PGS
Language                                 : Portuguese
Default                                  : No
Forced                                   : No

Text #14
ID                                       : 17
Format                                   : PGS
Muxing mode                              : zlib
Codec ID                                 : S_HDMV/PGS
Codec ID/Info                            : Picture based subtitle format used on BDs/HD-DVDs
Duration                                 : 2 h 24 min
Bit rate                                 : 24.8 kb/s
Count of elements                        : 4168
Stream size                              : 25.7 MiB (0%)
Title                                    : Arabic-PGS
Language                                 : Arabic
Default                                  : No
Forced                                   : No

Text #15
ID                                       : 18
Format                                   : PGS
Muxing mode                              : zlib
Codec ID                                 : S_HDMV/PGS
Codec ID/Info                            : Picture based subtitle format used on BDs/HD-DVDs
Duration                                 : 2 h 24 min
Bit rate                                 : 36.8 kb/s
Count of elements                        : 3962
Stream size                              : 38.1 MiB (0%)
Title                                    : Czech-PGS
Language                                 : Czech
Default                                  : No
Forced                                   : No

Text #16
ID                                       : 19
Format                                   : PGS
Muxing mode                              : zlib
Codec ID                                 : S_HDMV/PGS
Codec ID/Info                            : Picture based subtitle format used on BDs/HD-DVDs
Duration                                 : 2 h 24 min
Bit rate                                 : 36.6 kb/s
Count of elements                        : 3888
Stream size                              : 37.8 MiB (0%)
Title                                    : Danish-PGS
Language                                 : Danish
Default                                  : No
Forced                                   : No

Text #17
ID                                       : 20
Format                                   : PGS
Muxing mode                              : zlib
Codec ID                                 : S_HDMV/PGS
Codec ID/Info                            : Picture based subtitle format used on BDs/HD-DVDs
Duration                                 : 2 h 24 min
Bit rate                                 : 41.1 kb/s
Count of elements                        : 3918
Stream size                              : 42.5 MiB (0%)
Title                                    : Finnish-PGS
Language                                 : Finnish
Default                                  : No
Forced                                   : No

Text #18
ID                                       : 21
Format                                   : PGS
Muxing mode                              : zlib
Codec ID                                 : S_HDMV/PGS
Codec ID/Info                            : Picture based subtitle format used on BDs/HD-DVDs
Duration                                 : 2 h 24 min
Bit rate                                 : 29.8 kb/s
Count of elements                        : 3976
Stream size                              : 30.8 MiB (0%)
Title                                    : Hebrew-PGS
Language                                 : Hebrew
Default                                  : No
Forced                                   : No

Text #19
ID                                       : 22
Format                                   : PGS
Muxing mode                              : zlib
Codec ID                                 : S_HDMV/PGS
Codec ID/Info                            : Picture based subtitle format used on BDs/HD-DVDs
Duration                                 : 2 h 24 min
Bit rate                                 : 36.9 kb/s
Count of elements                        : 3910
Stream size                              : 38.2 MiB (0%)
Title                                    : Norwegian-PGS
Language                                 : Norwegian
Default                                  : No
Forced                                   : No

Text #20
ID                                       : 23
Format                                   : PGS
Muxing mode                              : zlib
Codec ID                                 : S_HDMV/PGS
Codec ID/Info                            : Picture based subtitle format used on BDs/HD-DVDs
Duration                                 : 2 h 24 min
Bit rate                                 : 39.3 kb/s
Count of elements                        : 4130
Stream size                              : 40.6 MiB (0%)
Title                                    : Polish-PGS
Language                                 : Polish
Default                                  : No
Forced                                   : No

Text #21
ID                                       : 24
Format                                   : PGS
Muxing mode                              : zlib
Codec ID                                 : S_HDMV/PGS
Codec ID/Info                            : Picture based subtitle format used on BDs/HD-DVDs
Duration                                 : 2 h 24 min
Bit rate                                 : 40.2 kb/s
Count of elements                        : 3974
Stream size                              : 41.6 MiB (0%)
Title                                    : Portuguese-Iberian-PGS
Language                                 : Portuguese
Default                                  : No
Forced                                   : No

Text #22
ID                                       : 25
Format                                   : PGS
Muxing mode                              : zlib
Codec ID                                 : S_HDMV/PGS
Codec ID/Info                            : Picture based subtitle format used on BDs/HD-DVDs
Duration                                 : 2 h 24 min
Bit rate                                 : 47.3 kb/s
Count of elements                        : 4182
Stream size                              : 48.9 MiB (0%)
Title                                    : Russian-PGS
Language                                 : Russian
Default                                  : No
Forced                                   : No

Text #23
ID                                       : 26
Format                                   : PGS
Muxing mode                              : zlib
Codec ID                                 : S_HDMV/PGS
Codec ID/Info                            : Picture based subtitle format used on BDs/HD-DVDs
Duration                                 : 2 h 24 min
Bit rate                                 : 34.8 kb/s
Count of elements                        : 3912
Stream size                              : 36.0 MiB (0%)
Title                                    : Swedish-PGS
Language                                 : Swedish
Default                                  : No
Forced                                   : No

Text #24
ID                                       : 27
Format                                   : PGS
Muxing mode                              : zlib
Codec ID                                 : S_HDMV/PGS
Codec ID/Info                            : Picture based subtitle format used on BDs/HD-DVDs
Duration                                 : 2 h 24 min
Bit rate                                 : 43.2 kb/s
Count of elements                        : 3922
Stream size                              : 44.7 MiB (0%)
Title                                    : Turkish-PGS
Language                                 : Turkish
Default                                  : No
Forced                                   : No

Text #25
ID                                       : 28
Format                                   : PGS
Muxing mode                              : zlib
Codec ID                                 : S_HDMV/PGS
Codec ID/Info                            : Picture based subtitle format used on BDs/HD-DVDs
Duration                                 : 2 h 19 min
Bit rate                                 : 30.8 kb/s
Count of elements                        : 3915
Stream size                              : 30.8 MiB (0%)
Title                                    : Japanese-PGS
Language                                 : Japanese
Default                                  : No
Forced                                   : No

Menu
00:00:00.000                             : enrologue and Credits
00:02:43.830                             : en:The Cab Stand
00:05:49.516                             : en:No More Letters
00:07:36.623                             : enaulie\'s Business
00:09:08.548                             : enike a Gangster
00:10:49.023                             : en:Jimmy the Gent
00:13:28.599                             : en:Henry\'s First Pinch
00:15:01.943                             : en:The Idlewild Connection
00:16:38.581                             : en:Cast of Characters
00:19:43.224                             : en:Funny Guy
00:23:46.467                             : en:The Bamboo Lounge
00:28:39.843                             : en:First Date, First Fight
00:31:32.766                             : en:The Copacabana
00:34:36.366                             : en:Airport Heist
00:35:43.558                             : en:Animal Attraction
00:37:21.364                             : en:Morrie and Bruce...
00:41:27.694                             : en:The Wedding
00:44:26.414                             : en:The Wives
00:48:56.142                             : en:Togetherness
00:52:04.538                             : en:Billy Bats
00:57:07.507                             : en:Mrs. Devito\'s House
01:01:10.292                             : en:Friday\'s
01:03:46.322                             : enigging Expedition
01:06:23.313                             : en:Janice
01:07:43.518                             : en:Spider
01:12:32.431                             : en:At Gunpoint
01:15:43.289                             : en:Trip to Tampa
01:18:39.340                             : en:Trip to Jail
01:20:02.923                             : enife in Stir
01:23:05.439                             : en:On Our Own
01:25:37.924                             : en:Homecoming; Paulie\'s
01:28:14.498                             : en:New Business, New Home
01:30:29.758                             : en:The Lufthansa Heist
01:33:20.929                             : enayoffs
01:37:52.492                             : en:Covering Stacks\' Tracks
01:40:01.913                             : en:Tommy\'s Good Fortune
01:42:51.582                             : en:Morrie\'s Bad Fortune
01:46:34.138                             : en:Bodies All Over
01:49:14.256                             : en:The Day Tommie Is Made
01:53:21.795                             : en:Sunday, May 11Th 1980
02:03:56.220                             : en:Aftermath: The Bad Time
02:07:18.840                             : en:Henry and Paulie
02:09:29.845                             : en:Karen and Jimmy
02:12:01.080                             : en:Smiling Murderers
02:15:02.219                             : eneaving the Life
02:18:47.528                             : en:A Schnook; Coda
02:20:33.008                             : en:End Credits




游客,如果您要查看本帖隐藏内容请回复




发帖影音仅供个人用户学习交流测试网速使用,请将所有内容请于24小时内删除,禁止非法恶意传播,获利,本人不对任何下载转载者造成的危害负任何法律责任!
回复

使用道具 举报

0

主题

0

好友

353

积分

知名艺人

Rank: 2

UID
834185
主题
0
金钱
197
高清币
24
鲜花
0
阅读权限
20
QQ
QQ
最后登录
2017-12-16
发表于 2017-12-6 21:07:37 |显示全部楼层
既然你诚信诚意的推荐了,那我就勉为其难的看看吧!
回复

使用道具 举报

0

主题

0

好友

50

积分

跑龙套

Rank: 1

UID
913725
主题
0
金钱
14
高清币
12
鲜花
0
阅读权限
10
QQ
QQ
最后登录
2017-12-6
发表于 2017-12-6 21:15:06 |显示全部楼层

被慢慢的脱去身上的丝袜裙子 在男人面前无耻的扭动肉体!







马上进入:被慢慢的脱去身上的丝袜裙子 在男人面前无耻的扭动肉体!



======图片回复可見======
回复

使用道具 举报

0

主题

0

好友

100

积分

跑龙套

Rank: 1

UID
136214
主题
0
金钱
60
高清币
6
鲜花
0
阅读权限
10
QQ
QQ
最后登录
2017-12-12
发表于 2017-12-6 21:25:19 |显示全部楼层
盗亦有道,经典分享
回复

使用道具 举报

0

主题

0

好友

384

积分

知名艺人

Rank: 2

UID
804403
主题
0
金钱
265
高清币
1
鲜花
0
阅读权限
20
QQ
QQ
最后登录
2017-12-17
发表于 2017-12-6 21:28:31 |显示全部楼层
既然你诚信诚意的推荐了,那我就勉为其难的看看吧!
回复

使用道具 举报

0

主题

0

好友

384

积分

知名艺人

Rank: 2

UID
804403
主题
0
金钱
265
高清币
1
鲜花
0
阅读权限
20
QQ
QQ
最后登录
2017-12-17
发表于 2017-12-6 21:29:31 |显示全部楼层
楼主分享的高清电影太好了!
回复

使用道具 举报

0

主题

0

好友

384

积分

知名艺人

Rank: 2

UID
804403
主题
0
金钱
265
高清币
1
鲜花
0
阅读权限
20
QQ
QQ
最后登录
2017-12-17
发表于 2017-12-6 21:30:45 |显示全部楼层
我看不错噢 谢谢楼主!
回复

使用道具 举报

0

主题

0

好友

1382

积分

人气偶像

Rank: 3Rank: 3

UID
244328
主题
0
金钱
891
高清币
21
鲜花
0
阅读权限
30
QQ
QQ
最后登录
2017-12-8
发表于 2017-12-6 21:37:26 |显示全部楼层
感谢楼主分享精彩电影!
回复

使用道具 举报

0

主题

0

好友

2579

积分

人气偶像

Rank: 3Rank: 3

UID
911441
主题
0
金钱
938
高清币
391
鲜花
0
阅读权限
30
QQ
QQ
最后登录
2017-12-17
发表于 2017-12-6 21:50:23 |显示全部楼层
感谢分享精彩好电影!!!
回复

使用道具 举报

0

主题

0

好友

1万

积分

好莱坞明星

Rank: 6Rank: 6

UID
259428
主题
0
金钱
7323
高清币
0
鲜花
0
阅读权限
90
QQ
QQ
最后登录
2017-12-17
发表于 2017-12-6 21:51:00 |显示全部楼层
感谢楼主分享精彩电影!
回复

使用道具 举报

期待您加入中国高清论坛QQ交流1群:197652384
 懒得打字嘛,点击右侧快捷回复【左侧自定义内容】  【右侧自定义内容】
您需要登录后才可以回帖 登录 | 立即注册

回顶部