请选择 进入手机版 | 继续访问电脑版

中国高清论坛

 找回密码
 立即注册
查看: 363|回复: 73

[喜剧片] 小鬼上路2.Are.We.Done.Yet.2007.1080p.BluRay.x264-CDDHD

  [复制链接]

8874

主题

0

好友

9658

积分

凤舞九天

Rank: 9Rank: 9Rank: 9

UID
3244
主题
8874
金钱
334
高清币
151
鲜花
0
阅读权限
200
QQ
QQ
最后登录
2017-12-16
发表于 2017-12-7 15:06:58 |显示全部楼层




◎译  名 小鬼上路2/有完没完/干好了么
◎片  名 Are We Done Yet?
◎年  代 2007
◎产  地 美国/加拿大
◎类  别 喜剧/剧情/家庭
◎语  言 英语
◎上映日期 2007-04-04
◎IMDb评分  4.0/10 from 16,806 users
◎豆瓣评分 6.3/10 from 897 users
◎片  长 USA: 92 分钟
◎导  演 Steve Carr
◎主  演 艾斯·库珀 Ice Cube
      尼娅·朗 Nia Long
      约翰·C·麦金雷 John C. McGinley
      Aleisha Allen
      菲利普·鲍顿 Philip Bolden

◎简  介

  历经千辛万苦,单身汉单身尼克·普森斯(艾斯·库柏 Ice Cube 饰)终于打动苏珊娜·金斯顿(妮娅·朗 Nia Long 饰)的芳心,也赢得苏珊娜一双子女琳赛(艾丽莎·艾伦 Aleisha Allen 饰)和凯文(菲利普·丹尼尔·波顿 Philip Bolden 饰)的信任,四个人从此组成快乐和幸福的小家庭。尼克似乎找到生活的方向,继而开始朝着梦想努力。
  为了给孩子们以及即将出世的双胞胎创造良好的生活条件,尼克搬离了那间有如垃圾堆的小公寓,在纽伯郡乡间买了一幢别墅。然而这幢别墅纯属华而不实的残次品,而房屋中介商小查克·米契尔(约翰·C·麦金雷 John C. McGinley 饰)更是个怪异神经质的家伙。普森斯一家被房子和小查克搞得疲惫不堪……

Video
ID                                       : 1
Format                                   : AVC
Format/Info                              : Advanced Video Codec
Format profile                           : High@L5.1
Format settings, CABAC                   : Yes
Format settings, ReFrames                : 5 frames
Codec ID                                 : V_MPEG4/ISO/AVC
Duration                                 : 1 h 32 min
Bit rate                                 : 10.8 Mb/s
Width                                    : 1 920 pixels
Height                                   : 1 024 pixels
Display aspect ratio                     : 1.85:1
Frame rate mode                          : Constant
Frame rate                               : 23.976 FPS
Color space                              : YUV
Chroma subsampling                       : 4:2:0
Bit depth                                : 8 bits
Scan type                                : Progressive
Bits/(Pixel*Frame)                       : 0.230
Stream size                              : 6.82 GiB (86%)
Writing library                          : x264 core 60 r901M 58d7d06
Encoding settings                        : cabac=1 / ref=5 / deblock=0:0:0 / analyse=0x3:0x2 / me=hex / subme=6 / rdcmp=psy / brdo=0 / mixed_ref=1 / me_range=16 / chroma_me=1 / trellis=1 / 8x8dct=1 / cqm=0 / deadzone=21,11 / chroma_qp_offset=0 / threads=6 / nr=0 / decimate=1 / mbaff=0 / bframes=3 / b_pyramid=1 / b_adapt=1 / b_bias=0 / direct=3 / wpredb=1 / bime=1 / keyint=150 / keyint_min=25 / scenecut=40(pre) / rc=2pass / bitrate=10845 / ratetol=1.0 / rceq=\'blurCplx^(1-qComp)\' / qcomp=1.00 / qpmin=10 / qpmax=51 / qpstep=4 / cplxblur=20.0 / qblur=0.5 / ip_ratio=1.40 / pb_ratio=1.30 / aq=2:1.00
Language                                 : English
Default                                  : Yes
Forced                                   : No

Audio
ID                                       : 2
Format                                   : DTS
Format/Info                              : Digital Theater Systems
Mode                                     : 16
Format settings, Endianness              : Big
Codec ID                                 : A_DTS
Duration                                 : 1 h 32 min
Bit rate mode                            : Constant
Bit rate                                 : 1 510 kb/s
Channel(s)                               : 6 channels
Channel positions                        : Front: L C R, Side: L R, LFE
Sampling rate                            : 48.0 kHz
Frame rate                               : 93.750 FPS (512 spf)
Bit depth                                : 24 bits
Compression mode                         : Lossy
Stream size                              : 994 MiB (12%)
Language                                 : English
Default                                  : Yes
Forced                                   : No






回复下载:





游客,如果您要查看本帖隐藏内容请回复


回复

使用道具 举报

0

主题

0

好友

3万

积分

永恒神话

Rank: 10Rank: 10Rank: 10

UID
178533
主题
0
金钱
12257
高清币
5220
鲜花
0
阅读权限
90
QQ
QQ
最后登录
2017-12-17
发表于 2017-12-7 15:13:22 |显示全部楼层
谢谢发片,辛苦了
回复

使用道具 举报

0

主题

1

好友

2万

积分

superstar

Rank: 9Rank: 9Rank: 9

UID
82340
主题
0
金钱
5941
高清币
5169
鲜花
0
阅读权限
90
QQ
QQ
最后登录
2017-12-17
发表于 2017-12-7 15:13:30 |显示全部楼层
楼主分享的高清电影太好了!
回复

使用道具 举报

0

主题

16

好友

6752

积分

金鸡奖主角

Rank: 5Rank: 5

UID
278197
主题
0
金钱
3977
高清币
253
鲜花
0
阅读权限
70
QQ
QQ
最后登录
2017-12-17
发表于 2017-12-7 15:15:03 |显示全部楼层
感谢楼主的无私分享!
回复

使用道具 举报

0

主题

0

好友

5917

积分

金鸡奖主角

Rank: 5Rank: 5

UID
194195
主题
0
金钱
3625
高清币
99
鲜花
0
阅读权限
70
QQ
QQ
最后登录
2017-12-16
发表于 2017-12-7 15:29:22 |显示全部楼层
每天都来中国高清论坛看看有什么电影!
回复

使用道具 举报

0

主题

10

好友

15万

积分

永恒神话

Rank: 10Rank: 10Rank: 10

UID
742887
主题
0
金钱
49453
高清币
33985
鲜花
0
阅读权限
90
QQ
QQ
最后登录
2017-12-16
发表于 2017-12-7 15:36:20 |显示全部楼层
既然你诚信诚意的推荐了,那我就勉为其难的看看吧!
回复

使用道具 举报

0

主题

10

好友

15万

积分

永恒神话

Rank: 10Rank: 10Rank: 10

UID
742887
主题
0
金钱
49453
高清币
33985
鲜花
0
阅读权限
90
QQ
QQ
最后登录
2017-12-16
发表于 2017-12-7 15:36:44 |显示全部楼层
其实我一直觉得楼主的品味不错!呵呵!
回复

使用道具 举报

0

主题

0

好友

686

积分

知名艺人

Rank: 2

UID
809717
主题
0
金钱
382
高清币
36
鲜花
0
阅读权限
20
QQ
QQ
最后登录
2017-12-17
发表于 2017-12-7 15:44:36 |显示全部楼层

感谢楼主分享此片!
回复

使用道具 举报

0

主题

0

好友

384

积分

知名艺人

Rank: 2

UID
913568
主题
0
金钱
200
高清币
0
鲜花
0
阅读权限
20
QQ
QQ
最后登录
2017-12-16
发表于 2017-12-7 15:48:50 |显示全部楼层
感谢 ,老片子了就不下载了
回复

使用道具 举报

0

主题

0

好友

5403

积分

金鸡奖主角

Rank: 5Rank: 5

UID
212363
主题
0
金钱
3129
高清币
516
鲜花
0
阅读权限
70
QQ
QQ
最后登录
2017-12-16
发表于 2017-12-7 16:00:36 |显示全部楼层
感谢楼主分享精彩电影!
回复

使用道具 举报

期待您加入中国高清论坛QQ交流1群:197652384
 懒得打字嘛,点击右侧快捷回复【左侧自定义内容】  【右侧自定义内容】
您需要登录后才可以回帖 登录 | 立即注册

回顶部