请选择 进入手机版 | 继续访问电脑版

中国高清论坛

 找回密码
 立即注册
查看: 492|回复: 91

[喜剧片] 我去世的吃醋女友.Over.Her.Dead.Body.2008.1080p.BluRay.x264-CDDHD

  [复制链接]

8874

主题

0

好友

9658

积分

凤舞九天

Rank: 9Rank: 9Rank: 9

UID
3244
主题
8874
金钱
334
高清币
151
鲜花
0
阅读权限
200
QQ
QQ
最后登录
2017-12-16
发表于 2017-12-7 15:08:27 |显示全部楼层




◎译  名 我去世的吃醋女友/搞鬼情人(台)/宁死不从
◎片  名 Over Her Dead Body
◎年  代 2008
◎产  地 美国
◎类  别 喜剧/奇幻/爱情
◎语  言 英语
◎上映日期 2008-02-01
◎IMDb评分  5.2/10 from 22,106 users
◎豆瓣评分 5.9/10 from 6,605 users
◎片  长 95 分钟
◎导  演 Jeff Lowell
◎主  演 伊娃·朗格利亚 Eva Longoria Parker
      保罗·路德 Paul Rudd
      蕾克·贝尔 Lake Bell
      贾森·比格斯 Jason Biggs
      林赛·斯隆 Lindsay Sloane

◎简  介

  急躁挑剔的凯特(艾娃·朗格利亚 Eva Longoria 饰)和温柔随和的汉瑞(保罗·路德 Paul Rudd 饰)是一对性格各异、却又得到完美互补的情侣。经过多年的爱情长跑,他们终于迎来步入婚姻殿堂的那一天。然而,美满的婚礼却因一场意外而永久推迟。凯特不幸死于非命,这也给了汉瑞最为沉痛的打击。接下来的一年时间,汉瑞始终沉浸在悲痛中无法自拔。他的妹妹克洛伊(Lindsay Sloane 饰)焦急万分,于是找来通灵者艾丝莉(蕾克·贝尔 Lake Bell 饰)希望能帮汉瑞走出困境。
  第一次的通灵并不成功,克洛伊偷偷将凯特的日记交给艾丝莉,请她假扮凯特劝解哥哥。在这一过程中,艾丝莉和汉瑞相互吸引。令人想不到的是,已经升天的凯特似乎不愿将男友拱手相让,她竟折返人间!两人一鬼,究竟会闹出怎样的故事呢?

Video
ID                                       : 1
Format                                   : AVC
Format/Info                              : Advanced Video Codec
Format profile                           : High@L5.1
Format settings, CABAC                   : Yes
Format settings, ReFrames                : 5 frames
Codec ID                                 : V_MPEG4/ISO/AVC
Duration                                 : 1 h 30 min
Bit rate                                 : 11.9 Mb/s
Width                                    : 1 920 pixels
Height                                   : 800 pixels
Display aspect ratio                     : 2.40:1
Frame rate mode                          : Constant
Frame rate                               : 25.000 FPS
Color space                              : YUV
Chroma subsampling                       : 4:2:0
Bit depth                                : 8 bits
Scan type                                : Progressive
Bits/(Pixel*Frame)                       : 0.310
Stream size                              : 7.38 GiB (93%)
Writing library                          : x264 core 60 r901M 58d7d06
Encoding settings                        : cabac=1 / ref=5 / deblock=0:0:0 / analyse=0x3:0x2 / me=hex / subme=6 / rdcmp=psy / brdo=0 / mixed_ref=1 / me_range=16 / chroma_me=1 / trellis=1 / 8x8dct=1 / cqm=0 / deadzone=21,11 / chroma_qp_offset=0 / threads=6 / nr=0 / decimate=1 / mbaff=0 / bframes=3 / b_pyramid=1 / b_adapt=1 / b_bias=0 / direct=3 / wpredb=1 / bime=1 / keyint=150 / keyint_min=25 / scenecut=40(pre) / rc=2pass / bitrate=11920 / ratetol=1.0 / rceq=\'blurCplx^(1-qComp)\' / qcomp=1.00 / qpmin=10 / qpmax=51 / qpstep=4 / cplxblur=20.0 / qblur=0.5 / ip_ratio=1.40 / pb_ratio=1.30 / aq=2:1.00
Language                                 : English
Default                                  : Yes
Forced                                   : No

Audio
ID                                       : 2
Format                                   : AC-3
Format/Info                              : Audio Coding 3
Format settings, Endianness              : Big
Codec ID                                 : A_AC3
Duration                                 : 1 h 30 min
Bit rate mode                            : Constant
Bit rate                                 : 640 kb/s
Channel(s)                               : 6 channels
Channel positions                        : Front: L C R, Side: L R, LFE
Sampling rate                            : 48.0 kHz
Frame rate                               : 31.250 FPS (1536 spf)
Bit depth                                : 16 bits
Compression mode                         : Lossy
Stream size                              : 414 MiB (5%)
Language                                 : English
Service kind                             : Complete Main
Default                                  : Yes
Forced                                   : No





回复下载:





游客,如果您要查看本帖隐藏内容请回复


回复

使用道具 举报

0

主题

0

好友

3万

积分

永恒神话

Rank: 10Rank: 10Rank: 10

UID
178533
主题
0
金钱
12257
高清币
5220
鲜花
0
阅读权限
90
QQ
QQ
最后登录
2017-12-17
发表于 2017-12-7 15:13:05 |显示全部楼层
谢谢发片,辛苦了
回复

使用道具 举报

0

主题

1

好友

2万

积分

superstar

Rank: 9Rank: 9Rank: 9

UID
82340
主题
0
金钱
5941
高清币
5169
鲜花
0
阅读权限
90
QQ
QQ
最后登录
2017-12-17
发表于 2017-12-7 15:13:12 |显示全部楼层
楼主分享的高清电影太好了!
回复

使用道具 举报

0

主题

10

好友

15万

积分

永恒神话

Rank: 10Rank: 10Rank: 10

UID
742887
主题
0
金钱
49453
高清币
33985
鲜花
0
阅读权限
90
QQ
QQ
最后登录
2017-12-16
发表于 2017-12-7 15:35:30 |显示全部楼层
楼主分享的高清电影太好了!
回复

使用道具 举报

0

主题

10

好友

15万

积分

永恒神话

Rank: 10Rank: 10Rank: 10

UID
742887
主题
0
金钱
49453
高清币
33985
鲜花
0
阅读权限
90
QQ
QQ
最后登录
2017-12-16
发表于 2017-12-7 15:35:50 |显示全部楼层
我看不错噢 谢谢楼主!
回复

使用道具 举报

0

主题

0

好友

686

积分

知名艺人

Rank: 2

UID
809717
主题
0
金钱
382
高清币
36
鲜花
0
阅读权限
20
QQ
QQ
最后登录
2017-12-17
发表于 2017-12-7 15:44:21 |显示全部楼层

感谢楼主分享此片!
回复

使用道具 举报

1

主题

1

好友

5849

积分

金鸡奖主角

Rank: 5Rank: 5

UID
820402
主题
1
金钱
2227
高清币
1029
鲜花
0
阅读权限
70
QQ
QQ
最后登录
2017-12-15
发表于 2017-12-7 15:53:41 |显示全部楼层
感谢楼主分享精彩电影!
回复

使用道具 举报

0

主题

0

好友

5403

积分

金鸡奖主角

Rank: 5Rank: 5

UID
212363
主题
0
金钱
3129
高清币
516
鲜花
0
阅读权限
70
QQ
QQ
最后登录
2017-12-16
发表于 2017-12-7 16:00:17 |显示全部楼层
感谢楼主分享精彩电影!
回复

使用道具 举报

0

主题

1

好友

2万

积分

superstar

Rank: 9Rank: 9Rank: 9

UID
550468
主题
0
金钱
5918
高清币
5188
鲜花
0
阅读权限
90
QQ
QQ
最后登录
2017-12-16
发表于 2017-12-7 16:00:36 |显示全部楼层
每天都来中国高清论坛看看有什么电影!
回复

使用道具 举报

0

主题

0

好友

3462

积分

天王巨星

Rank: 4

UID
176566
主题
0
金钱
2558
高清币
31
鲜花
0
阅读权限
50
QQ
QQ
最后登录
2017-12-15
发表于 2017-12-7 16:03:32 |显示全部楼层
感谢楼主分享精彩电影!
回复

使用道具 举报

期待您加入中国高清论坛QQ交流1群:197652384
 懒得打字嘛,点击右侧快捷回复【左侧自定义内容】  【右侧自定义内容】
您需要登录后才可以回帖 登录 | 立即注册

回顶部