请选择 进入手机版 | 继续访问电脑版

中国高清论坛

 找回密码
 立即注册
查看: 380|回复: 88

[犯罪片] 节选修订/编译/波湾阴谋.Redacted.2007.1080p.BluRay.x264-CDDHD

  [复制链接]

8874

主题

0

好友

9658

积分

凤舞九天

Rank: 9Rank: 9Rank: 9

UID
3244
主题
8874
金钱
334
高清币
151
鲜花
0
阅读权限
200
QQ
QQ
最后登录
2017-12-16
发表于 2017-12-7 15:10:19 |显示全部楼层




◎译  名 节选修订/编译/波湾阴谋/洁版伊拉克
◎片  名 Redacted
◎年  代 2007
◎产  地 美国/加拿大
◎类  别 犯罪/剧情/战争
◎语  言 英语/法语/阿拉伯语/德语
◎上映日期 2007-08-31
◎IMDb评分  6.1/10 from 9,270 users
◎豆瓣评分 7.3/10 from 1,192 users
◎片  长 90 分钟
◎导  演 布莱恩·德·帕尔玛 Brian De Palma
◎主  演 Kel O'Neill
      Ty Jones
      Izzy Diaz

◎简  介

  本片讲述了在伊拉克冲突中作战的年轻美国大兵的故事,并将侧重点集中在了多媒体覆盖下的现代战争模式上。由于年轻人冲动的本性和自身的局限,《节选修订》向我们展示了将一群年轻的美国士兵放置在一个精神上野心勃勃的境地的恶果。导演德·帕尔玛在搜集和整理了大量美伊冲突中美国士兵的经历,此番将镜头对准余热未消的伊拉克战争,可谓浑身是胆。
  剧情围绕美国陆军的一个小分队展开。他们借着自己的强势地位,迫害了一名无辜的伊拉克女孩及她的家人,故事在一次残忍的强奸和谋杀中达到顶峰。
  影片锋芒毕露,尖锐地揭示出战争带来的无辜死亡和伊拉克人面对战争时的无助。电影让观众思考并开始质疑得到的任何信息和事件。因为,真相经媒体和政治等等的高效率过滤器过滤之后往往已经走样,变成了为一小部分人所用的工具。最后电影抛下一个问题等待着大家思考:一旦我们知道了真相,战争的意义何在?所有的悲剧将向谁倾诉?

◎获奖情况

  第64届威尼斯电影节  (2007)
  金狮奖(提名) 布莱恩·德·帕尔玛
  银狮奖 最佳导演 布莱恩·德·帕尔玛

Video
ID                                       : 1
Format                                   : AVC
Format/Info                              : Advanced Video Codec
Format profile                           : High@L5.1
Format settings, CABAC                   : Yes
Format settings, ReFrames                : 5 frames
Codec ID                                 : V_MPEG4/ISO/AVC
Duration                                 : 1 h 30 min
Bit rate                                 : 12.0 Mb/s
Width                                    : 1 920 pixels
Height                                   : 1 080 pixels
Display aspect ratio                     : 16:9
Frame rate mode                          : Constant
Frame rate                               : 23.976 (23976/1000) FPS
Color space                              : YUV
Chroma subsampling                       : 4:2:0
Bit depth                                : 8 bits
Scan type                                : Progressive
Bits/(Pixel*Frame)                       : 0.241
Stream size                              : 7.37 GiB (87%)
Writing library                          : x264 core 59 r808M ff5059a
Encoding settings                        : cabac=1 / ref=5 / deblock=0:0:0 / analyse=0x3:0x2 / me=hex / subme=6 / me-prepass=0 / brdo=0 / mixed_ref=1 / me_range=16 / chroma_me=1 / trellis=1 / 8x8dct=1 / cqm=0 / deadzone=21,11 / chroma_qp_offset=0 / threads=6 / nr=0 / decimate=1 / mbaff=0 / bframes=3 / b_pyramid=1 / b_adapt=1 / b_bias=0 / direct=3 / wpredb=1 / bime=1 / keyint=150 / keyint_min=25 / scenecut=40(pre) / rc=2pass / bitrate=11995 / ratetol=1.0 / rceq=\'blurCplx^(1-qComp)\' / qcomp=1.00 / qpmin=10 / qpmax=51 / qpstep=4 / cplxblur=20.0 / qblur=0.5 / ip_ratio=1.40 / pb_ratio=1.30 / aq=2:1.00
Language                                 : English
Default                                  : Yes
Forced                                   : No

Audio
ID                                       : 2
Format                                   : DTS
Format/Info                              : Digital Theater Systems
Mode                                     : 16
Format settings, Endianness              : Big
Codec ID                                 : A_DTS
Duration                                 : 1 h 30 min
Bit rate mode                            : Constant
Bit rate                                 : 1 510 kb/s
Channel(s)                               : 6 channels
Channel positions                        : Front: L C R, Side: L R, LFE
Sampling rate                            : 48.0 kHz
Frame rate                               : 93.750 FPS (512 spf)
Bit depth                                : 24 bits
Compression mode                         : Lossy
Stream size                              : 972 MiB (11%)
Language                                 : English
Default                                  : Yes
Forced                                   : No





回复下载:





游客,如果您要查看本帖隐藏内容请回复


回复

使用道具 举报

0

主题

0

好友

3万

积分

永恒神话

Rank: 10Rank: 10Rank: 10

UID
178533
主题
0
金钱
12257
高清币
5220
鲜花
0
阅读权限
90
QQ
QQ
最后登录
2017-12-17
发表于 2017-12-7 15:12:34 |显示全部楼层
谢谢发片,辛苦了
回复

使用道具 举报

0

主题

1

好友

2万

积分

superstar

Rank: 9Rank: 9Rank: 9

UID
82340
主题
0
金钱
5941
高清币
5169
鲜花
0
阅读权限
90
QQ
QQ
最后登录
2017-12-17
发表于 2017-12-7 15:12:55 |显示全部楼层
我看不错噢 谢谢楼主!
回复

使用道具 举报

0

主题

10

好友

15万

积分

永恒神话

Rank: 10Rank: 10Rank: 10

UID
742887
主题
0
金钱
49453
高清币
33985
鲜花
0
阅读权限
90
QQ
QQ
最后登录
2017-12-16
发表于 2017-12-7 15:34:36 |显示全部楼层
我看不错噢 谢谢楼主!
回复

使用道具 举报

0

主题

10

好友

15万

积分

永恒神话

Rank: 10Rank: 10Rank: 10

UID
742887
主题
0
金钱
49453
高清币
33985
鲜花
0
阅读权限
90
QQ
QQ
最后登录
2017-12-16
发表于 2017-12-7 15:35:02 |显示全部楼层
既然你诚信诚意的推荐了,那我就勉为其难的看看吧!
回复

使用道具 举报

0

主题

0

好友

686

积分

知名艺人

Rank: 2

UID
809717
主题
0
金钱
382
高清币
36
鲜花
0
阅读权限
20
QQ
QQ
最后登录
2017-12-17
发表于 2017-12-7 15:44:01 |显示全部楼层

感谢楼主分享此片!
回复

使用道具 举报

1

主题

1

好友

5849

积分

金鸡奖主角

Rank: 5Rank: 5

UID
820402
主题
1
金钱
2227
高清币
1029
鲜花
0
阅读权限
70
QQ
QQ
最后登录
2017-12-15
发表于 2017-12-7 15:53:17 |显示全部楼层
感谢楼主分享精彩电影!
回复

使用道具 举报

0

主题

1

好友

2万

积分

superstar

Rank: 9Rank: 9Rank: 9

UID
550468
主题
0
金钱
5918
高清币
5188
鲜花
0
阅读权限
90
QQ
QQ
最后登录
2017-12-16
发表于 2017-12-7 16:01:10 |显示全部楼层
感谢楼主分享精彩电影!
回复

使用道具 举报

0

主题

1

好友

1万

积分

好莱坞明星

Rank: 6Rank: 6

UID
381124
主题
0
金钱
4425
高清币
837
鲜花
0
阅读权限
90
QQ
QQ
最后登录
2017-12-15
发表于 2017-12-7 16:03:41 |显示全部楼层
每天都来中国高清论坛看看有什么电影!
回复

使用道具 举报

18

主题

26

好友

4万

积分

永恒神话

Rank: 10Rank: 10Rank: 10

UID
862896
主题
18
金钱
12949
高清币
10023
鲜花
0
阅读权限
90
QQ
QQ
最后登录
2017-12-16

天秤座

发表于 2017-12-7 16:16:20 手机频道 |显示全部楼层
感谢楼主分享
回复

使用道具 举报

期待您加入中国高清论坛QQ交流1群:197652384
 懒得打字嘛,点击右侧快捷回复【左侧自定义内容】  【右侧自定义内容】
您需要登录后才可以回帖 登录 | 立即注册

回顶部