请选择 进入手机版 | 继续访问电脑版

中国高清论坛

 找回密码
 立即注册
查看: 503|回复: 109

[喜剧片] 谈谈情,跳跳舞.Shall.We.Dance.2004.1080p.BluRay.x264-CDDHD

  [复制链接]

8874

主题

0

好友

9658

积分

凤舞九天

Rank: 9Rank: 9Rank: 9

UID
3244
主题
8874
金钱
334
高清币
151
鲜花
0
阅读权限
200
QQ
QQ
最后登录
2017-12-16
发表于 2017-12-7 15:11:50 |显示全部楼层





◎译  名 谈谈情,跳跳舞/谈情共舞/我们跳舞吧
◎片  名 Shall We Dance
◎年  代 2004
◎产  地 美国
◎类  别 喜剧/剧情/爱情
◎语  言 英语
◎上映日期 2004-10-15
◎IMDb评分  6.1/10 from 37,983 users
◎豆瓣评分 7.5/10 from 7,149 users
◎片  长 106 分钟
◎导  演 彼德·切尔瑟姆 Peter Chelsom
◎主  演 理查·基尔 Richard Gere
      詹妮弗·洛佩兹 Jennifer Lopez
      苏珊·萨兰登 Susan Sarandon
      斯坦利·图齐 Stanley Tucci
      理查德·詹金斯 Richard Jenkins

◎简  介

  约翰(理查·基尔 Richard Gere饰)面临着典型的中年危机:即使有着幸福家庭和体面事业,内心的空虚和压力却随着年龄而倍增。他一成不变的生活需要某些催化剂,来重新唤醒内心激情。
  每次路过舞蹈室,约翰都会看到舞蹈老师宝琳娜(詹妮弗·洛佩兹 Jennifer Lopez饰)。她美丽而略带神秘的魅力、加上约翰内心期待的某种生活的变化,终于把他带进了里面的舞蹈课程。他报名参加这里的社交舞培训,但令人失望的是老师并不是宝琳娜。更糟糕的是,约翰舞姿笨拙,似乎并不是跳舞的料。
  然而,当学舞成为了约翰生活的一部分,当他终于结识了宝琳娜并和她甚为投缘,情况开始有了变化——约翰报名参加了一个芝加哥的舞蹈大赛,而约翰的婚姻,也亮起了红灯。

Video
ID                                       : 1
Format                                   : AVC
Format/Info                              : Advanced Video Codec
Format profile                           : High@L5.1
Format settings, CABAC                   : Yes
Format settings, ReFrames                : 5 frames
Format settings, GOP                     : N=1
Codec ID                                 : V_MPEG4/ISO/AVC
Duration                                 : 1 h 46 min
Bit rate                                 : 10.1 Mb/s
Width                                    : 1 920 pixels
Height                                   : 1 080 pixels
Display aspect ratio                     : 16:9
Frame rate mode                          : Constant
Frame rate                               : 23.976 (23976/1000) FPS
Color space                              : YUV
Chroma subsampling                       : 4:2:0
Bit depth                                : 8 bits
Scan type                                : Progressive
Bits/(Pixel*Frame)                       : 0.202
Stream size                              : 7.31 GiB (92%)
Writing library                          : x264 core 59 r808M ff5059a
Encoding settings                        : cabac=1 / ref=5 / deblock=0:0:0 / analyse=0x3:0x2 / me=hex / subme=6 / me-prepass=0 / brdo=0 / mixed_ref=1 / me_range=16 / chroma_me=1 / trellis=1 / 8x8dct=1 / cqm=0 / deadzone=21,11 / chroma_qp_offset=0 / threads=6 / nr=0 / decimate=1 / mbaff=0 / bframes=3 / b_pyramid=1 / b_adapt=1 / b_bias=0 / direct=3 / wpredb=1 / bime=1 / keyint=150 / keyint_min=25 / scenecut=40(pre) / rc=2pass / bitrate=10050 / ratetol=1.0 / rceq=\'blurCplx^(1-qComp)\' / qcomp=1.00 / qpmin=10 / qpmax=51 / qpstep=4 / cplxblur=20.0 / qblur=0.5 / ip_ratio=1.40 / pb_ratio=1.30 / aq=2:1.00
Language                                 : English
Default                                  : Yes
Forced                                   : No

Audio
ID                                       : 2
Format                                   : AC-3
Format/Info                              : Audio Coding 3
Format settings, Endianness              : Big
Codec ID                                 : A_AC3
Duration                                 : 1 h 46 min
Bit rate mode                            : Constant
Bit rate                                 : 640 kb/s
Channel(s)                               : 6 channels
Channel positions                        : Front: L C R, Side: L R, LFE
Sampling rate                            : 48.0 kHz
Frame rate                               : 31.250 FPS (1536 spf)
Bit depth                                : 16 bits
Compression mode                         : Lossy
Stream size                              : 487 MiB (6%)
Language                                 : English
Service kind                             : Complete Main
Default                                  : Yes
Forced                                   : No






回复下载:





游客,如果您要查看本帖隐藏内容请回复


回复

使用道具 举报

0

主题

1

好友

2万

积分

superstar

Rank: 9Rank: 9Rank: 9

UID
82340
主题
0
金钱
5941
高清币
5169
鲜花
0
阅读权限
90
QQ
QQ
最后登录
2017-12-17
发表于 2017-12-7 15:12:35 |显示全部楼层
楼主分享的高清电影太好了!
回复

使用道具 举报

0

主题

0

好友

38

积分

跑龙套

Rank: 1

UID
913815
主题
0
金钱
29
高清币
1
鲜花
0
阅读权限
10
QQ
QQ
最后登录
2017-12-17
发表于 2017-12-7 15:24:08 |显示全部楼层
谢谢分享谢谢分享谢谢分享
回复

使用道具 举报

0

主题

10

好友

15万

积分

永恒神话

Rank: 10Rank: 10Rank: 10

UID
742887
主题
0
金钱
49453
高清币
33985
鲜花
0
阅读权限
90
QQ
QQ
最后登录
2017-12-16
发表于 2017-12-7 15:34:00 |显示全部楼层
中国高清论坛很棒!
回复

使用道具 举报

0

主题

10

好友

15万

积分

永恒神话

Rank: 10Rank: 10Rank: 10

UID
742887
主题
0
金钱
49453
高清币
33985
鲜花
0
阅读权限
90
QQ
QQ
最后登录
2017-12-16
发表于 2017-12-7 15:34:16 |显示全部楼层
其实我一直觉得楼主的品味不错!呵呵!
回复

使用道具 举报

0

主题

0

好友

686

积分

知名艺人

Rank: 2

UID
809717
主题
0
金钱
382
高清币
36
鲜花
0
阅读权限
20
QQ
QQ
最后登录
2017-12-17
发表于 2017-12-7 15:43:42 |显示全部楼层

感谢楼主分享此片!
回复

使用道具 举报

1

主题

1

好友

5849

积分

金鸡奖主角

Rank: 5Rank: 5

UID
820402
主题
1
金钱
2227
高清币
1029
鲜花
0
阅读权限
70
QQ
QQ
最后登录
2017-12-15
发表于 2017-12-7 15:52:56 |显示全部楼层
感谢楼主分享精彩电影!
回复

使用道具 举报

1

主题

0

好友

4463

积分

天王巨星

Rank: 4

UID
407871
主题
1
金钱
2989
高清币
17
鲜花
0
阅读权限
50
QQ
QQ
最后登录
2017-12-16
发表于 2017-12-7 15:53:24 |显示全部楼层
感谢楼主分享精彩电影!
回复

使用道具 举报

0

主题

0

好友

5403

积分

金鸡奖主角

Rank: 5Rank: 5

UID
212363
主题
0
金钱
3129
高清币
516
鲜花
0
阅读权限
70
QQ
QQ
最后登录
2017-12-16
发表于 2017-12-7 15:59:55 |显示全部楼层
感谢楼主分享精彩电影!
回复

使用道具 举报

0

主题

0

好友

1628

积分

人气偶像

Rank: 3Rank: 3

UID
575332
主题
0
金钱
1162
高清币
2
鲜花
0
阅读权限
30
QQ
QQ
最后登录
2017-12-13
发表于 2017-12-7 16:00:21 |显示全部楼层
中国高清论坛很棒!
回复

使用道具 举报

期待您加入中国高清论坛QQ交流1群:197652384
 懒得打字嘛,点击右侧快捷回复【左侧自定义内容】  【右侧自定义内容】
您需要登录后才可以回帖 登录 | 立即注册

回顶部