请选择 进入手机版 | 继续访问电脑版

中国高清论坛

 找回密码
 立即注册
查看: 551|回复: 112

[恐怖片] 别惹小孩2/灵异万圣夜2.Trick.R.Treat.2007.1080p.BluRay.x264-CiNEFiLE

  [复制链接]

8874

主题

0

好友

9658

积分

凤舞九天

Rank: 9Rank: 9Rank: 9

UID
3244
主题
8874
金钱
334
高清币
151
鲜花
0
阅读权限
200
QQ
QQ
最后登录
2017-12-16
发表于 2017-12-7 15:13:32 |显示全部楼层




◎译  名 别惹小孩2/灵异万圣夜2/不给糖就杀人2/万圣夜游戏2/谁的万圣节2
◎片  名 Trick 'r Treat 2
◎年  代 2017
◎产  地 美国
◎类  别 恐怖
◎语  言 英语
◎豆瓣评分 6.7/10 from 12 users
◎导  演 迈克尔·道赫蒂 Michael Dougherty

◎简  介

  传说万圣节是亡灵和不可言喻之物在人间游荡之夜。万圣节沿袭下来的诸多习俗就是为了庇护我们免受邪灵侵害。有这样一个小镇即将接受一场恐怖的教训,因为有些习俗是最好不要遗忘掉的。据说在这个鬼魂和怪物自由出没的夜晚,只有遵循传统点燃南瓜灯的人才能安然度过。格雷戈先生(布莱恩·考克斯饰)和他太太认识到了午夜前熄灭南瓜灯的危险,四个女伴在过路的时候遭到了化妆者的尾行,一群探险者在野外发现了残酷的传说真相……礼服和糖果,食尸鬼和小妖精,怪兽和伤害,万圣节的“给糖或者捣蛋”习俗,最终演变成致命的怪物袭击。尝试着在一年里最恐怖的那个晚上活下来吧。

Video
ID                                       : 1
Format                                   : AVC
Format/Info                              : Advanced Video Codec
Format profile                           : High@L4
Format settings, CABAC                   : Yes
Format settings, ReFrames                : 5 frames
Codec ID                                 : V_MPEG4/ISO/AVC
Duration                                 : 1 h 22 min
Bit rate                                 : 10.8 Mb/s
Width                                    : 1 920 pixels
Height                                   : 800 pixels
Display aspect ratio                     : 2.40:1
Frame rate mode                          : Constant
Frame rate                               : 23.976 (24000/1001) FPS
Color space                              : YUV
Chroma subsampling                       : 4:2:0
Bit depth                                : 8 bits
Scan type                                : Progressive
Bits/(Pixel*Frame)                       : 0.292
Stream size                              : 6.06 GiB (92%)
Writing library                          : x264 core 76 r1271 496d79d
Encoding settings                        : cabac=1 / ref=5 / deblock=1:0:0 / analyse=0x3:0x113 / me=umh / subme=7 / psy=1 / psy_rd=1.0:0.0 / mixed_ref=1 / me_range=16 / chroma_me=1 / trellis=1 / 8x8dct=1 / cqm=0 / deadzone=21,11 / chroma_qp_offset=-2 / threads=6 / nr=0 / decimate=1 / mbaff=0 / bframes=3 / b_pyramid=0 / b_adapt=1 / b_bias=0 / direct=1 / wpredb=1 / keyint=250 / keyint_min=25 / scenecut=40 / rc_lookahead=40 / rc=2pass / mbtree=1 / bitrate=10761 / ratetol=1.0 / qcomp=0.60 / qpmin=10 / qpmax=51 / qpstep=4 / cplxblur=20.0 / qblur=0.5 / ip_ratio=1.40 / aq=1:1.00
Language                                 : English
Default                                  : Yes
Forced                                   : No

Audio
ID                                       : 2
Format                                   : AC-3
Format/Info                              : Audio Coding 3
Format settings, Endianness              : Big
Codec ID                                 : A_AC3
Duration                                 : 1 h 22 min
Bit rate mode                            : Constant
Bit rate                                 : 640 kb/s
Channel(s)                               : 6 channels
Channel positions                        : Front: L C R, Side: L R, LFE
Sampling rate                            : 48.0 kHz
Frame rate                               : 31.250 FPS (1536 spf)
Bit depth                                : 16 bits
Compression mode                         : Lossy
Stream size                              : 377 MiB (6%)
Service kind                             : Complete Main
Default                                  : Yes
Forced                                   : No

Text
ID                                       : 3
Format                                   : UTF-8
Codec ID                                 : S_TEXT/UTF8
Codec ID/Info                            : UTF-8 Plain Text
Language                                 : English
Default                                  : No
Forced                                   : No






回复下载:





游客,如果您要查看本帖隐藏内容请回复


回复

使用道具 举报

0

主题

1

好友

2万

积分

superstar

Rank: 9Rank: 9Rank: 9

UID
82340
主题
0
金钱
5941
高清币
5169
鲜花
0
阅读权限
90
QQ
QQ
最后登录
2017-12-17
发表于 2017-12-7 15:23:37 |显示全部楼层
楼主分享的高清电影太好了!
回复

使用道具 举报

0

主题

0

好友

5917

积分

金鸡奖主角

Rank: 5Rank: 5

UID
194195
主题
0
金钱
3625
高清币
99
鲜花
0
阅读权限
70
QQ
QQ
最后登录
2017-12-16
发表于 2017-12-7 15:28:37 |显示全部楼层
每天都来中国高清论坛看看有什么电影!
回复

使用道具 举报

0

主题

0

好友

733

积分

知名艺人

Rank: 2

UID
290882
主题
0
金钱
474
高清币
2
鲜花
0
阅读权限
20
QQ
QQ
最后登录
2017-12-15
发表于 2017-12-7 15:28:52 |显示全部楼层
谢谢楼主分享
回复

使用道具 举报

0

主题

10

好友

15万

积分

永恒神话

Rank: 10Rank: 10Rank: 10

UID
742887
主题
0
金钱
49453
高清币
33985
鲜花
0
阅读权限
90
QQ
QQ
最后登录
2017-12-16
发表于 2017-12-7 15:33:19 |显示全部楼层
既然你诚信诚意的推荐了,那我就勉为其难的看看吧!
回复

使用道具 举报

0

主题

10

好友

15万

积分

永恒神话

Rank: 10Rank: 10Rank: 10

UID
742887
主题
0
金钱
49453
高清币
33985
鲜花
0
阅读权限
90
QQ
QQ
最后登录
2017-12-16
发表于 2017-12-7 15:33:42 |显示全部楼层
楼主分享的高清电影太好了!
回复

使用道具 举报

0

主题

0

好友

686

积分

知名艺人

Rank: 2

UID
809717
主题
0
金钱
382
高清币
36
鲜花
0
阅读权限
20
QQ
QQ
最后登录
2017-12-17
发表于 2017-12-7 15:42:32 |显示全部楼层

感谢楼主分享此片!
回复

使用道具 举报

0

主题

0

好友

686

积分

知名艺人

Rank: 2

UID
809717
主题
0
金钱
382
高清币
36
鲜花
0
阅读权限
20
QQ
QQ
最后登录
2017-12-17
发表于 2017-12-7 15:43:26 |显示全部楼层

感谢楼主分享此片!
回复

使用道具 举报

1

主题

1

好友

5849

积分

金鸡奖主角

Rank: 5Rank: 5

UID
820402
主题
1
金钱
2227
高清币
1029
鲜花
0
阅读权限
70
QQ
QQ
最后登录
2017-12-15
发表于 2017-12-7 15:52:23 |显示全部楼层
感谢楼主分享精彩电影!
回复

使用道具 举报

0

主题

0

好友

5403

积分

金鸡奖主角

Rank: 5Rank: 5

UID
212363
主题
0
金钱
3129
高清币
516
鲜花
0
阅读权限
70
QQ
QQ
最后登录
2017-12-16
发表于 2017-12-7 15:59:28 |显示全部楼层
感谢楼主分享精彩电影!
回复

使用道具 举报

期待您加入中国高清论坛QQ交流1群:197652384
 懒得打字嘛,点击右侧快捷回复【左侧自定义内容】  【右侧自定义内容】
您需要登录后才可以回帖 登录 | 立即注册

回顶部