请选择 进入手机版 | 继续访问电脑版

中国高清论坛

 找回密码
 立即注册
查看: 4980|回复: 855

[动作片] 星球大战8:最后的绝地武士/星球大战:最后绝地武士(港)/星球大战8/星战8 Star.Wars.The.Last.Jedi.2017.1080p.BluRay.x264.DTS-HD.MA.7.1-FGT 14.27GB

  [复制链接]

1万

主题

0

好友

155万

积分

超级版主

Rank: 8Rank: 8

UID
610038
主题
10752
金钱
24423
高清币
759169
鲜花
2
阅读权限
150
QQ
QQ
最后登录
2018-9-23
发表于 2018-3-11 07:20:52 |显示全部楼层
本帖最后由 ccbby 于 2018-3-11 08:22 编辑



p2506694509.jpg

◎译  名 星球大战8:最后的绝地武士/星球大战:最后绝地武士(港)/星球大战8/星战8
◎片  名 Star Wars: The Last Jedi
◎年  代 2017
◎产  地 美国
◎类  别 动作/科幻/冒险
◎语  言 英语
◎上映日期 2017-12-15(美国)/2018-01-05(中国大陆)
◎IMDb评分  7.5/10 from 323,040 users
◎IMDb链接  http://www.imdb.com/title/tt2527336/
◎豆瓣评分 7.3/10 from 65,660 users
◎豆瓣链接 https://movie.douban.com/subject/22265634/
◎片  长 152分钟
◎导  演 莱恩·约翰逊 Rian Johnson
◎主  演 马克·哈米尔 Mark Hamill
      凯丽·费雪 Carrie Fisher
      黛西·雷德利 Daisy Ridley
      亚当·德赖弗 Adam Driver
      约翰·博耶加 John Boyega
      奥斯卡·伊萨克 Oscar Isaac
      安迪·瑟金斯 Andy Serkis
      露皮塔·尼永奥 Lupita Nyong'o
      多姆纳尔·格里森 Domhnall Gleeson
      安东尼·丹尼尔斯 Anthony Daniels
      格温多兰·克里斯蒂 Gwendoline Christie
      凯莉·玛丽·陈 Kelly Marie Tran
      劳拉·邓恩 Laura Dern
      本尼西奥·德尔·托罗 Benicio Del Toro
      弗兰克·奥兹 Frank Oz
      比莉·洛德 Billie Lourd
      阿曼达·劳伦斯 Amanda Lawrence
      吉米·维 Jimmy Vee
      贾斯汀·塞洛克斯 Justin Theroux
      蒂姆·罗斯 Tim Rose
      汤姆·凯恩 Tom Kane
      亚德里安·埃德蒙松 Adrian Edmondson
      马克·路易斯·琼斯 Mark Lewis Jones
      赫敏·科菲尔德 Hermione Corfield
      吴青芸 Thanh Van Ngo
      诺阿·西甘 Noah Segan
      保罗·卡塞 Paul Kasey
      米凯拉·科尔 Michaela Coel
      普瑞扬咖·伯福德 Priyanga Burford
      纳温·乔杜里 Navin Chowdhry
      安德鲁·杰克 Andrew Jack
      克里斯塔·克拉克 Crystal Clarke
      伊川东吾 Togo Igawa


◎简  介


  《星球大战:最后的绝地武士》承接前作《星球大战:原力觉醒》的剧情,讲述第一军团全面侵袭之下,蕾伊(黛西·雷德利 Daisy Ridley 饰)、芬恩(约翰·博耶加 John Boyega 饰)、波·达默龙(奥斯卡·伊萨克 Oscar Isaac 饰)三位年轻主角各自的抉 择和冒险故事。前作中觉醒强大原力的蕾伊独自寻访隐居的绝地大师卢克·天行者(马克·哈米尔 Mark Hamill 饰),在后者的指导下接受原力训练。芬恩接受了一项几乎不可能完成的任务,为此他不得不勇闯敌营,面对自己的过去。波·达默龙则要适应从战士向领袖的角色转换,这一过程中他也将接受一些血的教训。


◎获奖情况


  第90届奥斯卡金像奖  (2018)
  最佳视觉效果(提名) 尼尔·斯坎伦 / 本·莫里斯 / 克里斯·考博德 / 迈克尔·马尔霍兰
  最佳混音(提名) 伦·克斯 / 斯图尔特·威尔逊 / 大卫·帕克 / 迈克尔·斯曼内科
  最佳音效剪辑(提名) 伦·克斯 / 马修·伍德
  最佳原创配乐(提名) 约翰·威廉姆斯


  第71届英国电影学院奖  (2018)
  电影奖 最佳特殊视觉效果(提名)
  电影奖 最佳音效(提名)


  第22届美国艺术指导工会奖  (2018)
  电影奖 最佳幻想电影艺术指导(提名)


  第16届美国视觉效果协会奖  (2018)
  最佳特效电影视觉效果(提名)
  最佳电影虚拟摄影(提名)
  最佳真人电影模拟动画效果(提名)


  第54届美国声音效果协会奖  (2018)
  真人电影最佳音效(提名)
  1. Video
  2. ID                                       : 1
  3. Format                                   : AVC
  4. Format/Info                              : Advanced Video Codec
  5. Format profile                           : High@L4.1
  6. Format settings                          : CABAC / 5 Ref Frames
  7. Format settings, CABAC                   : Yes
  8. Format settings, ReFrames                : 5 frames
  9. Codec ID                                 : V_MPEG4/ISO/AVC
  10. Duration                                 : 2 h 31 min
  11. Bit rate                                 : 8 797 kb/s
  12. Width                                    : 1 920 pixels
  13. Height                                   : 808 pixels
  14. Display aspect ratio                     : 2.40:1
  15. Frame rate mode                          : Constant
  16. Frame rate                               : 23.976 FPS
  17. Color space                              : YUV
  18. Chroma subsampling                       : 4:2:0
  19. Bit depth                                : 8 bits
  20. Scan type                                : Progressive
  21. Bits/(Pixel*Frame)                       : 0.237
  22. Stream size                              : 9.33 GiB (65%)
  23. Title                                    : Star.Wars.The.Last.Jedi.2017.1080p.BluRay.x264.DTS-HD.MA.7.1-FGT
  24. Writing library                          : x264 core 155 r2901 7d0ff22
  25. Encoding settings                        : cabac=1 / ref=5 / deblock=1:0:0 / analyse=0x3:0x133 / me=umh / subme=7 / psy=1 / psy_rd=1.00:0.00 / mixed_ref=1 / me_range=16 / chroma_me=1 / trellis=1 / 8x8dct=1 / cqm=0 / deadzone=21,11 / fast_pskip=0 / chroma_qp_offset=-2 / threads=25 / lookahead_threads=4 / sliced_threads=0 / nr=0 / decimate=1 / interlaced=0 / bluray_compat=0 / constrained_intra=0 / bframes=3 / b_pyramid=2 / b_adapt=1 / b_bias=0 / direct=1 / weightb=1 / open_gop=0 / weightp=2 / keyint=250 / keyint_min=23 / scenecut=40 / intra_refresh=0 / rc_lookahead=40 / rc=2pass / mbtree=1 / bitrate=8797 / ratetol=1.0 / qcomp=0.60 / qpmin=0 / qpmax=69 / qpstep=4 / cplxblur=20.0 / qblur=0.5 / ip_ratio=1.40 / aq=1:1.00
  26. Language                                 : English
  27. Default                                  : Yes
  28. Forced                                   : No

  29. Audio
  30. ID                                       : 2
  31. Format                                   : DTS
  32. Format/Info                              : Digital Theater Systems
  33. Format profile                           : MA / Core
  34. Codec ID                                 : A_DTS
  35. Duration                                 : 2 h 31 min
  36. Bit rate mode                            : Variable / Constant
  37. Bit rate                                 : 4 629 kb/s / 1 509 kb/s
  38. Channel(s)                               : 8 channels / 6 channels
  39. Channel positions                        : Front: L C R, Side: L R, Back: L R, LFE / Front: L C R, Side: L R, LFE
  40. Sampling rate                            : 48.0 kHz
  41. Frame rate                               : 93.750 FPS (512 SPF)
  42. Bit depth                                : 24 bits
  43. Compression mode                         : Lossless / Lossy
  44. Stream size                              : 4.91 GiB (34%)
  45. Title                                    : Star.Wars.The.Last.Jedi.2017.1080p.BluRay.x264.DTS-HD.MA.7.1-FGT
  46. Language                                 : English
  47. Default                                  : Yes
  48. Forced                                   : No

  49. Text #1
  50. ID                                       : 3
  51. Format                                   : UTF-8
  52. Codec ID                                 : S_TEXT/UTF8
  53. Codec ID/Info                            : UTF-8 Plain Text
  54. Duration                                 : 2 h 20 min
  55. Bit rate                                 : 40 b/s
  56. Count of elements                        : 1569
  57. Stream size                              : 41.6 KiB (0%)
  58. Title                                    : English-SRT
  59. Language                                 : English
  60. Default                                  : Yes
  61. Forced                                   : No

  62. Text #2
  63. ID                                       : 4
  64. Format                                   : UTF-8
  65. Codec ID                                 : S_TEXT/UTF8
  66. Codec ID/Info                            : UTF-8 Plain Text
  67. Duration                                 : 2 h 23 min
  68. Bit rate                                 : 46 b/s
  69. Count of elements                        : 1898
  70. Stream size                              : 49.1 KiB (0%)
  71. Title                                    : English-SDH-SRT
  72. Language                                 : English
  73. Default                                  : No
  74. Forced                                   : No

  75. Text #3
  76. ID                                       : 5
  77. Format                                   : PGS
  78. Muxing mode                              : zlib
  79. Codec ID                                 : S_HDMV/PGS
  80. Codec ID/Info                            : Picture based subtitle format used on BDs/HD-DVDs
  81. Duration                                 : 2 h 23 min
  82. Bit rate                                 : 31.0 kb/s
  83. Count of elements                        : 3796
  84. Stream size                              : 31.8 MiB (0%)
  85. Title                                    : English-PGS
  86. Language                                 : English
  87. Default                                  : No
  88. Forced                                   : No

  89. Text #4
  90. ID                                       : 6
  91. Format                                   : PGS
  92. Muxing mode                              : zlib
  93. Codec ID                                 : S_HDMV/PGS
  94. Codec ID/Info                            : Picture based subtitle format used on BDs/HD-DVDs
  95. Duration                                 : 2 h 25 min
  96. Bit rate                                 : 25.8 kb/s
  97. Count of elements                        : 3416
  98. Stream size                              : 26.8 MiB (0%)
  99. Title                                    : French-PGS
  100. Language                                 : French
  101. Default                                  : No
  102. Forced                                   : No

  103. Text #5
  104. ID                                       : 7
  105. Format                                   : PGS
  106. Muxing mode                              : zlib
  107. Codec ID                                 : S_HDMV/PGS
  108. Codec ID/Info                            : Picture based subtitle format used on BDs/HD-DVDs
  109. Duration                                 : 2 h 22 min
  110. Bit rate                                 : 25.7 kb/s
  111. Count of elements                        : 3182
  112. Stream size                              : 26.2 MiB (0%)
  113. Title                                    : Spanish-PGS
  114. Language                                 : Spanish
  115. Default                                  : No
  116. Forced                                   : No

  117. Menu
  118. 00:00:00.000                             : en:00:00:00.000
  119. 00:00:18.644                             : en:00:00:18.644
  120. 00:01:45.731                             : en:00:01:45.731
  121. 00:03:11.817                             : en:00:03:11.817
  122. 00:07:43.296                             : en:00:07:43.296
  123. 00:12:48.434                             : en:00:12:48.434
  124. 00:13:44.574                             : en:00:13:44.574
  125. 00:16:29.280                             : en:00:16:29.280
  126. 00:19:59.281                             : en:00:19:59.281
  127. 00:22:51.370                             : en:00:22:51.370
  128. 00:26:04.980                             : en:00:26:04.980
  129. 00:27:22.850                             : en:00:27:22.850
  130. 00:31:24.758                             : en:00:31:24.758
  131. 00:32:54.681                             : en:00:32:54.681
  132. 00:35:27.667                             : en:00:35:27.667
  133. 00:38:11.498                             : en:00:38:11.498
  134. 00:41:53.428                             : en:00:41:53.428
  135. 00:44:29.542                             : en:00:44:29.542
  136. 00:46:51.475                             : en:00:46:51.475
  137. 00:51:41.932                             : en:00:51:41.932
  138. 00:53:50.060                             : en:00:53:50.060
  139. 00:55:41.505                             : en:00:55:41.505
  140. 00:57:39.581                             : en:00:57:39.581
  141. 00:59:16.636                             : en:00:59:16.636
  142. 01:02:05.847                             : en:01:02:05.847
  143. 01:03:07.701                             : en:01:03:07.701
  144. 01:05:41.729                             : en:01:05:41.729
  145. 01:07:03.478                             : en:01:07:03.478
  146. 01:10:25.721                             : en:01:10:25.721
  147. 01:13:30.323                             : en:01:13:30.323
  148. 01:17:43.450                             : en:01:17:43.450
  149. 01:20:53.057                             : en:01:20:53.057
  150. 01:24:17.970                             : en:01:24:17.970
  151. 01:26:23.220                             : en:01:26:23.220
  152. 01:27:59.524                             : en:01:27:59.524
  153. 01:30:49.361                             : en:01:30:49.361
  154. 01:32:54.569                             : en:01:32:54.569
  155. 01:35:53.706                             : en:01:35:53.706
  156. 01:37:10.616                             : en:01:37:10.616
  157. 01:39:12.864                             : en:01:39:12.864
  158. 01:42:07.663                             : en:01:42:07.663
  159. 01:45:03.714                             : en:01:45:03.714
  160. 01:49:35.694                             : en:01:49:35.694
  161. 01:52:20.609                             : en:01:52:20.609
  162. 01:56:04.749                             : en:01:56:04.749
  163. 01:58:52.083                             : en:01:58:52.083
  164. 02:03:11.134                             : en:02:03:11.134
  165. 02:06:39.759                             : en:02:06:39.759
  166. 02:11:43.604                             : en:02:11:43.604
  167. 02:15:12.104                             : en:02:15:12.104
  168. 02:20:16.700                             : en:02:20:16.700
  169. 02:23:39.694                             : en:02:23:39.694
复制代码




游客,如果您要查看本帖隐藏内容请回复,如不想回复请点击赞助VIP贵宾:https://item.taobao.com/item.htm?id=540849877691
回复

使用道具 举报

2

主题

0

好友

4725

积分

天王巨星

Rank: 4

UID
357473
主题
2
金钱
2979
高清币
69
鲜花
0
阅读权限
50
QQ
QQ
最后登录
2018-9-23
发表于 2018-3-11 07:21:11 |显示全部楼层
Thanks♪(・ω・)ノ
回复

使用道具 举报

0

主题

0

好友

7807

积分

金鸡奖主角

Rank: 5Rank: 5

UID
146654
主题
0
金钱
5324
高清币
7
鲜花
0
阅读权限
70
QQ
QQ
最后登录
2018-9-22
发表于 2018-3-11 07:23:00 |显示全部楼层
每天都来中国高清论坛看看有什么电影!
回复

使用道具 举报

0

主题

0

好友

3461

积分

天王巨星

Rank: 4

UID
122393
主题
0
金钱
2225
高清币
2
鲜花
0
阅读权限
50
QQ
QQ
最后登录
2018-8-15
发表于 2018-3-11 07:24:58 |显示全部楼层
中国高清论坛很棒!
回复

使用道具 举报

1

主题

0

好友

2万

积分

superstar

Rank: 9Rank: 9Rank: 9

UID
192332
主题
1
金钱
13051
高清币
920
鲜花
0
阅读权限
90
QQ
QQ
最后登录
2018-9-22
发表于 2018-3-11 07:27:44 |显示全部楼层
楼主分享的高清电影太好了!
回复

使用道具 举报

0

主题

0

好友

924

积分

知名艺人

Rank: 2

UID
888616
主题
0
金钱
541
高清币
15
鲜花
0
阅读权限
20
QQ
QQ
最后登录
2018-9-20
发表于 2018-3-11 07:29:31 |显示全部楼层
我要下载了啊,
回复

使用道具 举报

1

主题

0

好友

5万

积分

永恒神话

Rank: 10Rank: 10Rank: 10

UID
911441
主题
1
金钱
20501
高清币
6425
鲜花
0
阅读权限
90
QQ
QQ
最后登录
2018-9-23
发表于 2018-3-11 07:31:10 |显示全部楼层
感谢分享精彩好电影!!!
回复

使用道具 举报

0

主题

0

好友

4192

积分

天王巨星

Rank: 4

UID
390181
主题
0
金钱
3290
高清币
40
鲜花
0
阅读权限
50
QQ
QQ
最后登录
2018-9-22
发表于 2018-3-11 07:35:01 |显示全部楼层
感谢分享精彩好电影!!!
回复

使用道具 举报

0

主题

1

好友

599

积分

知名艺人

Rank: 2

UID
24414
主题
0
金钱
398
高清币
0
鲜花
0
阅读权限
20
QQ
QQ
最后登录
2018-4-25
发表于 2018-3-11 07:37:23 |显示全部楼层
楼主分享的高清电影太好了!
回复

使用道具 举报

0

主题

0

好友

9222

积分

金鸡奖主角

Rank: 5Rank: 5

UID
376541
主题
0
金钱
4211
高清币
1036
鲜花
0
阅读权限
70
QQ
QQ
最后登录
2018-9-22
发表于 2018-3-11 07:37:38 |显示全部楼层
感谢楼主分享精彩电影!
回复

使用道具 举报

期待您加入中国高清论坛QQ交流6群:20818254
 懒得打字嘛,点击右侧快捷回复【左侧自定义内容】  【右侧自定义内容】
您需要登录后才可以回帖 登录 | 立即注册

回顶部