请选择 进入手机版 | 继续访问电脑版

中国高清论坛

 找回密码
 立即注册
查看: 4404|回复: 781

[动作片] 贼巢/极盗战(台)/贼斗(港) Den.of.Thieves.2018.1080p.AMZN.WEBRip.DDP5.1.x264-SiGMA 9.42GB

  [复制链接]

8696

主题

0

好友

113万

积分

超级版主

Rank: 8Rank: 8

UID
610038
主题
8696
金钱
20079
高清币
552236
鲜花
2
阅读权限
150
QQ
QQ
最后登录
2018-7-23
发表于 2018-4-10 16:27:16 |显示全部楼层
本帖最后由 ccbby 于 2018-4-16 01:23 编辑


p2515842474.jpg

译  名 贼巢/极盗战(台)/贼斗(港)
◎片  名 Den of Thieves
◎年  代 2018
◎产  地 美国
◎类  别 动作/犯罪/惊悚
◎语  言 英语
◎上映日期 2018-01-19(美国)
◎IMDb评分  7.1/10 from 11,066 users
◎豆瓣评分 6.5/10 from 190 users
◎片  长 140分钟
◎导  演 克里斯蒂安·古德加斯特 Christian Gudegast
◎主  演 杰拉德·巴特勒 Gerard Butler
      巴勃罗·施瑞博尔 Pablo Schreiber
      小奥谢拉·杰克逊 O'Shea Jackson Jr.
      50分 50 Cent
      梅多·威廉姆斯 Meadow Williams
      莫里斯·孔特 Maurice Compte
      布莱恩·范·霍尔特 Brian Van Holt
      伊万·琼斯 Evan Jones
      莫·麦克雷 Mo McRae
      凯维·莱曼-默塞尤 Kaiwi Lyman-Mersereau
      道恩·奥利弗瑞 Dawn Olivieri
      艾瑞克·布里登 Eric Braeden
      约旦·布里奇斯 Jordan Bridges
      刘易斯·谭 Lewis Tan
      库珀·安德鲁斯 Cooper Andrews

◎简  介

  从未被劫的银行,三千万无记认钞票,引爆连环盗计。一群以梅雷亚(巴勃罗·施瑞博尔 饰)为首的高智罪犯,手法高超、火力强横、而且沉迷打劫;纵使犯案累累,却甚少破绽,令警方束手无策。一次押款车劫案后,他们的党羽唐尼(奥谢拉·杰克逊 饰)被辣手神探尼克(杰拉德·巴特勒 饰)识破,更从他身上知道匪帮下一个目标,是攻破从未遇劫的洛杉矶联邦储备银行,从中盗取三千万即将销毁的旧钞!于是尼克布下天罗地网,想趁机把他们一网成擒。然而,魔高一丈;梅雷亚以声东击西之法,引开警方注意。尼克错失擒获他们的良机,唯有尾随追击,双方展开连场枪战。虽然最终截获贼匪,但赃款竟全数不翼而飞!局中有局,究竟谁是取得巨款的幕后赢家?
  1. Video
  2. ID                                       : 1
  3. Format                                   : AVC
  4. Format/Info                              : Advanced Video Codec
  5. Format profile                           : High@L4
  6. Format settings                          : CABAC / 4 Ref Frames
  7. Format settings, CABAC                   : Yes
  8. Format settings, ReFrames                : 4 frames
  9. Codec ID                                 : V_MPEG4/ISO/AVC
  10. Duration                                 : 2 h 20 min
  11. Bit rate mode                            : Variable
  12. Bit rate                                 : 8 992 kb/s
  13. Maximum bit rate                         : 15.0 Mb/s
  14. Width                                    : 1 920 pixels
  15. Height                                   : 800 pixels
  16. Display aspect ratio                     : 2.40:1
  17. Frame rate mode                          : Constant
  18. Frame rate                               : 23.976 (24000/1001) FPS
  19. Color space                              : YUV
  20. Chroma subsampling                       : 4:2:0
  21. Bit depth                                : 8 bits
  22. Scan type                                : Progressive
  23. Bits/(Pixel*Frame)                       : 0.244
  24. Stream size                              : 8.79 GiB (93%)
  25. Default                                  : Yes
  26. Forced                                   : No
  27. Color range                              : Limited
  28. Color primaries                          : BT.709
  29. Transfer characteristics                 : BT.709
  30. Matrix coefficients                      : BT.709

  31. Audio
  32. ID                                       : 2
  33. Format                                   : E-AC-3
  34. Format/Info                              : Enhanced Audio Coding 3
  35. Codec ID                                 : A_EAC3
  36. Duration                                 : 2 h 20 min
  37. Bit rate mode                            : Constant
  38. Bit rate                                 : 640 kb/s
  39. Channel(s)                               : 6 channels
  40. Channel positions                        : Front: L C R, Side: L R, LFE
  41. Sampling rate                            : 48.0 kHz
  42. Frame rate                               : 187.500 FPS (256 SPF)
  43. Compression mode                         : Lossy
  44. Stream size                              : 641 MiB (7%)
  45. Language                                 : English
  46. Service kind                             : Complete Main
  47. Default                                  : Yes
  48. Forced                                   : No

  49. Text
  50. ID                                       : 3
  51. Format                                   : UTF-8
  52. Codec ID                                 : S_TEXT/UTF8
  53. Codec ID/Info                            : UTF-8 Plain Text
  54. Duration                                 : 2 h 11 min
  55. Bit rate                                 : 50 b/s
  56. Count of elements                        : 1644
  57. Stream size                              : 48.2 KiB (0%)
  58. Language                                 : English
  59. Default                                  : No
  60. Forced                                   : No
复制代码

=========================================================================================


新片特别推荐





红雀/红雀特工(港)/红色麻雀 /红燕子/红麻雀/朱雀 Red.Sparrow.2018.1080p.HC.HDRip.X264.AC3-EVO 3.73GB
红雀/红雀特工(港)/红色麻雀 /红燕子/红麻雀/朱雀Red.Sparrow.2018.1080p.KORSUB.HDRip.x264.AAC2.0-STUTTERSHIT 4.84GB
红雀/红雀特工(港)/红色麻雀/红燕子/红麻雀/朱雀 RED SPARROW 2018.HC.1080p.HDRip.AC3.KorSub Exclusive 5GB


奥斯卡影后詹妮弗·劳伦斯 奉献从影来最大尺度演出


================================================




游客,如果您要查看本帖隐藏内容请回复,如不想回复请点击赞助VIP贵宾:https://item.taobao.com/item.htm?id=540849877691


回复

使用道具 举报

0

主题

0

好友

2291

积分

人气偶像

Rank: 3Rank: 3

UID
486609
主题
0
金钱
1536
高清币
23
鲜花
0
阅读权限
30
QQ
QQ
最后登录
2018-7-22
发表于 2018-4-10 16:32:08 |显示全部楼层
中国高清论坛很棒!
回复

使用道具 举报

0

主题

0

好友

1万

积分

超级明星

Rank: 7Rank: 7Rank: 7

UID
220694
主题
0
金钱
5196
高清币
1902
鲜花
0
阅读权限
90
QQ
QQ
最后登录
2018-7-20
发表于 2018-4-10 16:39:03 |显示全部楼层
感谢分享!!
回复

使用道具 举报

0

主题

0

好友

552

积分

知名艺人

Rank: 2

UID
626971
主题
0
金钱
217
高清币
83
鲜花
0
阅读权限
20
QQ
QQ
最后登录
2018-4-10
发表于 2018-4-10 16:39:23 |显示全部楼层

中国高清论坛很棒!
回复

使用道具 举报

0

主题

2

好友

8316

积分

金鸡奖主角

Rank: 5Rank: 5

UID
179865
主题
0
金钱
4748
高清币
403
鲜花
0
阅读权限
70
QQ
QQ
最后登录
2018-7-23
发表于 2018-4-10 16:39:28 |显示全部楼层
中国高清论坛很棒!
回复

使用道具 举报

0

主题

0

好友

4796

积分

天王巨星

Rank: 4

UID
209185
主题
0
金钱
3129
高清币
65
鲜花
0
阅读权限
50
QQ
QQ
最后登录
2018-7-20
发表于 2018-4-10 16:40:50 |显示全部楼层
每天都来中国高清论坛看看有什么电影!
回复

使用道具 举报

0

主题

1

好友

6819

积分

金鸡奖主角

Rank: 5Rank: 5

UID
708200
主题
0
金钱
3979
高清币
3
鲜花
0
阅读权限
70
QQ
QQ
最后登录
2018-7-22
发表于 2018-4-10 16:41:36 |显示全部楼层
中国高清论坛很棒!
回复

使用道具 举报

0

主题

0

好友

1341

积分

人气偶像

Rank: 3Rank: 3

UID
373490
主题
0
金钱
919
高清币
23
鲜花
0
阅读权限
30
QQ
QQ
最后登录
2018-7-22
发表于 2018-4-10 16:44:12 |显示全部楼层
贼巢/极盗战(台)/贼斗(港)
回复

使用道具 举报

0

主题

0

好友

1341

积分

人气偶像

Rank: 3Rank: 3

UID
373490
主题
0
金钱
919
高清币
23
鲜花
0
阅读权限
30
QQ
QQ
最后登录
2018-7-22
发表于 2018-4-10 16:44:39 |显示全部楼层
贼巢/极盗战(台)/贼斗(港)
回复

使用道具 举报

0

主题

0

好友

1341

积分

人气偶像

Rank: 3Rank: 3

UID
373490
主题
0
金钱
919
高清币
23
鲜花
0
阅读权限
30
QQ
QQ
最后登录
2018-7-22
发表于 2018-4-10 16:45:09 |显示全部楼层
贼巢/极盗战(台)/贼斗(港)
回复

使用道具 举报

期待您加入中国高清论坛QQ交流6群:20818254
 懒得打字嘛,点击右侧快捷回复【左侧自定义内容】  【右侧自定义内容】
您需要登录后才可以回帖 登录 | 立即注册

回顶部