请选择 进入手机版 | 继续访问电脑版

中国高清论坛

 找回密码
 立即注册
查看: 17264|回复: 2689

[剧情片] 名妓 [未删减版/内嵌繁简中文字幕] A.Celebrated.Gisaeng.2014.KR.UNCUT.HDRip.1920x1080p.x264.AAC-KOOK 3.51 GiB

  [复制链接]

1万

主题

0

好友

7万

积分

区域版主

Rank: 8Rank: 8

UID
13244
主题
13226
金钱
30856
高清币
13044
鲜花
-88
阅读权限
100
QQ
QQ
最后登录
2018-10-23
发表于 2018-4-10 19:04:16 |显示全部楼层
本帖最后由 jinggangshi 于 2018-4-10 19:30 编辑



◎片   名 名妓
◎译   名 Myeong-gi / Kisaeng / A Celebrated Gisaeng
◎年   代 2014
◎国   家 韩国
◎类   别 古装/情色
◎语   言 韩语
◎字   幕 简体字幕/繁体字幕
◎视频尺 寸  1920x1080p
◎片   长 1.39.06
◎导   演 姜贤
◎主   演 金珉咏
                   李尚勋
                   金京熙
                   强龙奎




◎简  介


   为了骗掉富家子弟家产,县令和名妓勾结与他打赌,如果他与其他女人发生关系就输掉全部家产,名妓想出一切办法去勾引他。
  1. General
  2. Unique ID                      : 224447862619206108237647698396761305060 (0xA8DB16014A94B60E9A2CC3C485A02FE4)

  3. Format                         : Matroska
  4. Format version                 : Version 4 / Version 2
  5. File size                      : 3.51 GiB
  6. Duration                       : 1 h 39 min
  7. Overall bit rate               : 5 066 kb/s
  8. Movie name                     : kook
  9. Encoded date                   : UTC 2018-04-08 14:59:29
  10. Writing application            : mkvmerge v9.4.2 ('So High') 64bit
  11. Writing library                : libebml v1.3.4 + libmatroska v1.4.5
  12. Attachments                    : p2220150866.jpg / fzlbfw.ttf / fzlbjw.ttf

  13. Video
  14. ID                             : 1
  15. Format                         : AVC
  16. Format/Info                    : Advanced Video Codec
  17. Format profile                 : Baseline@L3
  18. Format settings, CABAC         : No
  19. Format settings, ReFrames      : 3 frames
  20. Codec ID                       : V_MPEG4/ISO/AVC
  21. Duration                       : 1 h 39 min
  22. Bit rate                       : 5 000 kb/s
  23. Width                          : 1 920 pixels
  24. Height                         : 1 080 pixels
  25. Display aspect ratio           : 16:9
  26. Frame rate mode                : Constant
  27. Frame rate                     : 29.970 (30000/1001) FPS
  28. Color space                    : YUV
  29. Chroma subsampling             : 4:2:0
  30. Bit depth                      : 8 bits
  31. Scan type                      : Progressive
  32. Bits/(Pixel*Frame)             : 0.080
  33. Stream size                    : 3.41 GiB (97%)
  34. Title                          : kook
  35. Writing library                : x264 core 129 r2230 1cffe9f
  36. Encoding settings              : cabac=0 / ref=3 / deblock=1:0:0 / analyse=0x1:0x111 / me=hex / subme=7 / psy=1 / psy_rd=1.00:0.00 / mixed_ref=1 / me_range=16 / chroma_me=1 / trellis=1 / 8x8dct=0 / cqm=0 / deadzone=21,11 / fast_pskip=1 / chroma_qp_offset=-2 / threads=12 / lookahead_threads=2 / sliced_threads=0 / nr=0 / decimate=1 / interlaced=0 / bluray_compat=0 / constrained_intra=0 / bframes=0 / weightp=0 / keyint=250 / keyint_min=25 / scenecut=0 / intra_refresh=0 / rc_lookahead=40 / rc=abr / mbtree=1 / bitrate=5000 / ratetol=1.0 / qcomp=0.60 / qpmin=0 / qpmax=69 / qpstep=4 / vbv_maxrate=10000 / vbv_bufsize=10000 / nal_hrd=none / ip_ratio=1.40 / aq=1:1.00
  37. Default                        : Yes
  38. Forced                         : No

  39. Audio
  40. ID                             : 2
  41. Format                         : AAC
  42. Format/Info                    : Advanced Audio Codec
  43. Format profile                 : LC
  44. Codec ID                       : A_AAC
  45. Duration                       : 1 h 39 min
  46. Bit rate                       : 128 kb/s
  47. Channel(s)                     : 2 channels
  48. Channel positions              : Front: L R
  49. Sampling rate                  : 44.1 kHz
  50. Frame rate                     : 43.066 FPS (1024 spf)
  51. Compression mode               : Lossy
  52. Stream size                    : 90.8 MiB (3%)
  53. Default                        : Yes
  54. Forced                         : No

  55. Text #1
  56. ID                             : 3
  57. Format                         : ASS
  58. Codec ID                       : S_TEXT/ASS
  59. Codec ID/Info                  : Advanced Sub Station Alpha
  60. Duration                       : 1 h 36 min
  61. Bit rate                       : 71 b/s
  62. Count of elements              : 774
  63. Compression mode               : Lossless
  64. Stream size                    : 50.5 KiB (0%)
  65. Title                          : 简体字幕
  66. Language                       : Chinese
  67. Default                        : Yes
  68. Forced                         : No

  69. Text #2
  70. ID                             : 4
  71. Format                         : ASS
  72. Codec ID                       : S_TEXT/ASS
  73. Codec ID/Info                  : Advanced Sub Station Alpha
  74. Duration                       : 1 h 36 min
  75. Bit rate                       : 71 b/s
  76. Count of elements              : 774
  77. Compression mode               : Lossless
  78. Stream size                    : 50.5 KiB (0%)
  79. Title                          : 繁体字幕
  80. Language                       : Chinese
  81. Default                        : No
  82. Forced                         : No

复制代码

游客,如果您要查看本帖隐藏内容请回复,如不想回复请点击赞助VIP贵宾:https://item.taobao.com/item.htm?id=540849877691
回复

使用道具 举报

5

主题

0

好友

6893

积分

金鸡奖主角

Rank: 5Rank: 5

UID
609384
主题
5
金钱
3389
高清币
972
鲜花
0
阅读权限
70
QQ
QQ
最后登录
2018-10-23
发表于 2018-4-10 19:06:18 |显示全部楼层
每天都来中国高清论坛看看有什么电影!
回复

使用道具 举报

0

主题

0

好友

4661

积分

天王巨星

Rank: 4

UID
532118
主题
0
金钱
2594
高清币
21
鲜花
0
阅读权限
50
QQ
QQ
最后登录
2018-10-23
发表于 2018-4-10 19:06:26 |显示全部楼层
thank you very much
回复

使用道具 举报

0

主题

0

好友

1万

积分

好莱坞明星

Rank: 6Rank: 6

UID
61115
主题
0
金钱
8931
高清币
621
鲜花
0
阅读权限
90
QQ
QQ
最后登录
2018-10-22
发表于 2018-4-10 19:07:36 |显示全部楼层
每天都来中国高清论坛看看有什么电影!
回复

使用道具 举报

0

主题

7

好友

3665

积分

天王巨星

Rank: 4

UID
88296
主题
0
金钱
2094
高清币
2
鲜花
0
阅读权限
50
QQ
QQ
最后登录
2018-10-5
发表于 2018-4-10 19:09:58 |显示全部楼层
中国高清论坛真棒
回复

使用道具 举报

0

主题

1

好友

3286

积分

天王巨星

Rank: 4

UID
355460
主题
0
金钱
2544
高清币
1
鲜花
0
阅读权限
50
QQ
QQ
最后登录
2018-10-22
发表于 2018-4-10 19:10:22 |显示全部楼层
感谢楼主分享精彩电影!
回复

使用道具 举报

0

主题

0

好友

6942

积分

金鸡奖主角

Rank: 5Rank: 5

UID
458207
主题
0
金钱
3921
高清币
691
鲜花
0
阅读权限
70
QQ
QQ
最后登录
2018-10-21
发表于 2018-4-10 19:11:27 |显示全部楼层
楼主分享的高清电影太好了!
回复

使用道具 举报

1

主题

0

好友

8162

积分

金鸡奖主角

Rank: 5Rank: 5

UID
312489
主题
1
金钱
4882
高清币
22
鲜花
0
阅读权限
70
QQ
QQ
最后登录
2018-10-22
发表于 2018-4-10 19:13:16 |显示全部楼层
非常感谢楼主的分享
回复

使用道具 举报

0

主题

0

好友

1万

积分

影坛巨星

Rank: 8Rank: 8

UID
390508
主题
0
金钱
5691
高清币
3637
鲜花
0
阅读权限
90
QQ
QQ
最后登录
2018-10-22
发表于 2018-4-10 19:13:22 |显示全部楼层
感谢楼主的无私分享!
回复

使用道具 举报

0

主题

0

好友

3309

积分

天王巨星

Rank: 4

UID
873956
主题
0
金钱
1832
高清币
30
鲜花
0
阅读权限
50
QQ
QQ
最后登录
2018-10-23
发表于 2018-4-10 19:13:49 |显示全部楼层

感谢楼主分享精彩电影!
回复

使用道具 举报

期待您加入中国高清论坛QQ交流6群:20818254
 懒得打字嘛,点击右侧快捷回复【左侧自定义内容】  【右侧自定义内容】
您需要登录后才可以回帖 登录 | 立即注册

回顶部