请选择 进入手机版 | 继续访问电脑版

中国高清论坛

 找回密码
 立即注册
查看: 9001|回复: 1517

[剧情片] 女子学校拷问部 [内嵌繁简中文字幕] The.Torture.Club.2014.JP.BluRay.1920x1080p.x264.AC3-KOOK 7.95 GiB

  [复制链接]

1万

主题

0

好友

7万

积分

区域版主

Rank: 8Rank: 8

UID
13244
主题
13226
金钱
30856
高清币
13044
鲜花
-88
阅读权限
100
QQ
QQ
最后登录
2018-10-23
发表于 2018-4-10 19:05:11 |显示全部楼层
本帖最后由 jinggangshi 于 2018-4-10 19:30 编辑





◎译   名 女子学校拷问部 / 女子高校拷问部 / Chotto Kawaii Iron Maiden / The Torture Club / 酷刑俱乐部
◎片   名 ちょっとかわいいアイアンメイデン
◎年   代 2014
◎国   家 日本
◎类   别 剧情/情色
◎语   言 日语
◎字   幕 简体字幕/繁体字幕
◎IMDB 评分  4.3/10 from 238 users
◎视频尺 寸  1920x1080p
◎片   长 1.46.48
◎导   演 吉田浩太
◎主   演 木岛法子
吉住春奈
间宫夕贵
矢野未夏
本山娜美




◎简  介


  被称为永远萝莉系平面偶像的女星木岛法子在11月2日未发行的电影《女子高校拷问部》中上演全 裸拷问S M戏,以及同 性激情戏,女星魂大爆发。
  由在「PSYCHO-PASS」和老虚合作的脚本深见真原作,α AlfLayla作画的拷问4格漫画「女子高校拷问部」宣布改编真人电影,目前电影的海报公开,耻度让人无法直视!
  据悉,电影将在今年7月19日在日本全国上映。。。
  木岛法子从16岁开始作为平面偶像出道,她的写真DVD在购物网站销量总是排第一。
  她主演的《女子高校拷问部》根据因离奇设定而倍受欢迎的同名漫画改编,片中有捆绑、滴蜡烛、鞭打、吊起来等SM画面,当然也包括女同戏份。
  木岛法子说:“虽然很多都是第一次尝试,但既然决定做我就讨厌半吊子,所以非常努力演出。我原本就很喜欢可爱的女孩,拍摄时一直想着演对手戏的吉住春奈,感觉喜欢上她了,所以和她拍的床戏我没有任何抵触心理,表现也很大胆。”
  据悉,片中最让木岛法子痛苦的就是“虫刑”,她的手被绑住,无数甲虫的幼虫在她全身蠕动,是很疯狂的一种SM。木岛法子说:“我真是很受不了,光看照片都够难受了,可那都是工作人员辛苦养大的,把本来很小的幼虫养得肥大……拍完那个我都哭了。”
  木岛法子饰演的角色还从M转变成了S,随着拍摄进展她要让对手戏演员受伤,因为不忍伤害别人手下留情,结果反复拍了多次才成功。
  片中木岛法子还有一段自慰的戏份,她说:“那个真的好难,我看了导演的上一部作品学习,在家练习,拍摄完后导演还表扬我很棒。今后如果有需要我还可以全裸上镜。”
  1. General
  2. Unique ID                      : 200123583195112302047319692592444931671 (0x968E666FED07CA10B72C7A41561CFE57)

  3. Format                         : Matroska
  4. Format version                 : Version 4 / Version 2
  5. File size                      : 7.95 GiB
  6. Duration                       : 1 h 46 min
  7. Overall bit rate               : 10.7 Mb/s
  8. Movie name                     : kook
  9. Encoded date                   : UTC 2018-04-08 14:15:40
  10. Writing application            : mkvmerge v9.4.2 ('So High') 64bit
  11. Writing library                : libebml v1.3.4 + libmatroska v1.4.5
  12. Attachments                    : fzlbjw.ttf / fzlbfw.ttf / 正式海报.jpg

  13. Video
  14. ID                             : 2
  15. Format                         : AVC
  16. Format/Info                    : Advanced Video Codec
  17. Format profile                 : High@L4
  18. Format settings, CABAC         : Yes
  19. Format settings, ReFrames      : 4 frames
  20. Codec ID                       : V_MPEG4/ISO/AVC
  21. Duration                       : 1 h 46 min
  22. Bit rate                       : 10 000 kb/s
  23. Width                          : 1 920 pixels
  24. Height                         : 1 080 pixels
  25. Display aspect ratio           : 16:9
  26. Frame rate mode                : Variable
  27. Frame rate                     : 23.976 FPS
  28. Color space                    : YUV
  29. Chroma subsampling             : 4:2:0
  30. Bit depth                      : 8 bits
  31. Scan type                      : Progressive
  32. Bits/(Pixel*Frame)             : 0.201
  33. Stream size                    : 7.46 GiB (94%)
  34. Writing library                : x264 core 148 r2721+46 0c4b09a xiaowan [8-bit@all X86_64]
  35. Encoding settings              : cabac=1 / ref=4 / deblock=1:1:1 / analyse=0x3:0x133 / me=umh / subme=10 / psy=1 / fade_compensate=0.00 / psy_rd=0.30:0.00 / mixed_ref=1 / me_range=24 / chroma_me=1 / trellis=2 / 8x8dct=1 / cqm=0 / deadzone=21,11 / fast_pskip=1 / chroma_qp_offset=-2 / threads=12 / lookahead_threads=1 / sliced_threads=0 / nr=0 / decimate=1 / interlaced=0 / bluray_compat=0 / constrained_intra=0 / fgo=0 / bframes=3 / b_pyramid=2 / b_adapt=2 / b_bias=0 / direct=3 / weightb=1 / open_gop=0 / weightp=2 / keyint=240 / keyint_min=1 / scenecut=60 / intra_refresh=0 / rc_lookahead=60 / rc=2pass / mbtree=1 / bitrate=10000 / ratetol=1.0 / qcomp=0.50 / qpmin=0:0:0 / qpmax=69:69:69 / qpstep=4 / cplxblur=20.0 / qblur=0.5 / ip_ratio=1.40 / aq=2:0.80 / aq-sensitivity=10.00 / aq-factor=1.00:1.00:1.00 / aq2=0 / aq3=0
  36. Default                        : Yes
  37. Forced                         : No
  38. Color range                    : Limited
  39. Matrix coefficients            : BT.709

  40. Audio
  41. ID                             : 1
  42. Format                         : AC-3
  43. Format/Info                    : Audio Coding 3
  44. Mode extension                 : CM (complete main)
  45. Format settings, Endianness    : Big
  46. Codec ID                       : A_AC3
  47. Duration                       : 1 h 46 min
  48. Bit rate mode                  : Constant
  49. Bit rate                       : 640 kb/s
  50. Channel(s)                     : 6 channels
  51. Channel positions              : Front: L C R, Side: L R, LFE
  52. Sampling rate                  : 48.0 kHz
  53. Frame rate                     : 31.250 FPS (1536 spf)
  54. Compression mode               : Lossy
  55. Stream size                    : 489 MiB (6%)
  56. Title                          : kook
  57. Language                       : Japanese
  58. Default                        : Yes
  59. Forced                         : No

  60. Text #1
  61. ID                             : 3
  62. Format                         : ASS
  63. Codec ID                       : S_TEXT/ASS
  64. Codec ID/Info                  : Advanced Sub Station Alpha
  65. Duration                       : 1 h 44 min
  66. Bit rate                       : 61 b/s
  67. Count of elements              : 829
  68. Compression mode               : Lossless
  69. Stream size                    : 46.7 KiB (0%)
  70. Title                          : 简体字幕
  71. Language                       : Chinese
  72. Default                        : Yes
  73. Forced                         : No

  74. Text #2
  75. ID                             : 4
  76. Format                         : ASS
  77. Codec ID                       : S_TEXT/ASS
  78. Codec ID/Info                  : Advanced Sub Station Alpha
  79. Duration                       : 1 h 44 min
  80. Bit rate                       : 61 b/s
  81. Count of elements              : 829
  82. Compression mode               : Lossless
  83. Stream size                    : 46.7 KiB (0%)
  84. Title                          : 繁体字幕
  85. Language                       : Chinese
  86. Default                        : No
  87. Forced                         : No

  88. Menu
  89. 00:00:00.000                   : en:00:00:00.000
  90. 00:10:48.648                   : en:00:10:48.648
  91. 00:22:56.541                   : en:00:22:56.541
  92. 00:31:53.578                   : en:00:31:53.578
  93. 00:44:00.471                   : en:00:44:00.471
  94. 00:56:43.608                   : en:00:56:43.608
  95. 01:10:12.750                   : en:01:10:12.750
  96. 01:16:24.413                   : en:01:16:24.413
  97. 01:27:17.607                   : en:01:27:17.607
  98. 01:32:22.912                   : en:01:32:22.912
  99. 01:46:47.401                   : en:01:46:47.401
复制代码


游客,如果您要查看本帖隐藏内容请回复,如不想回复请点击赞助VIP贵宾:https://item.taobao.com/item.htm?id=540849877691
回复

使用道具 举报

3

主题

0

好友

6万

积分

永恒神话

Rank: 10Rank: 10Rank: 10

UID
344678
主题
3
金钱
21809
高清币
13491
鲜花
0
阅读权限
90
QQ
QQ
最后登录
2018-10-23
发表于 2018-4-10 19:11:49 |显示全部楼层
感谢楼主分享!
回复

使用道具 举报

0

主题

0

好友

8291

积分

金鸡奖主角

Rank: 5Rank: 5

UID
809912
主题
0
金钱
3786
高清币
788
鲜花
0
阅读权限
70
QQ
QQ
最后登录
2018-10-22
发表于 2018-4-10 19:12:27 |显示全部楼层
每天都来中国高清论坛看看有什么电影!
回复

使用道具 举报

5

主题

0

好友

6893

积分

金鸡奖主角

Rank: 5Rank: 5

UID
609384
主题
5
金钱
3389
高清币
972
鲜花
0
阅读权限
70
QQ
QQ
最后登录
2018-10-23
发表于 2018-4-10 19:12:28 |显示全部楼层
每天都来中国高清论坛看看有什么电影!
回复

使用道具 举报

0

主题

0

好友

6942

积分

金鸡奖主角

Rank: 5Rank: 5

UID
458207
主题
0
金钱
3921
高清币
691
鲜花
0
阅读权限
70
QQ
QQ
最后登录
2018-10-21
发表于 2018-4-10 19:13:51 |显示全部楼层
楼主分享的高清电影太好了!
回复

使用道具 举报

0

主题

0

好友

538

积分

知名艺人

Rank: 2

UID
866419
主题
0
金钱
409
高清币
18
鲜花
0
阅读权限
20
QQ
QQ
最后登录
2018-10-21
发表于 2018-4-10 19:13:59 |显示全部楼层
谢谢分享。。。。。。。。。。。。
回复

使用道具 举报

0

主题

0

好友

819

积分

知名艺人

Rank: 2

UID
872518
主题
0
金钱
618
高清币
1
鲜花
0
阅读权限
20
QQ
QQ
最后登录
2018-10-12
发表于 2018-4-10 19:14:40 |显示全部楼层
楼主分享的高清电影太好了!
回复

使用道具 举报

0

主题

0

好友

5370

积分

金鸡奖主角

Rank: 5Rank: 5

UID
491939
主题
0
金钱
2624
高清币
345
鲜花
0
阅读权限
70
QQ
QQ
最后登录
2018-10-4
发表于 2018-4-10 19:16:26 |显示全部楼层
每天都来中国高清论坛看看有什么电影!
回复

使用道具 举报

0

主题

0

好友

4844

积分

天王巨星

Rank: 4

UID
150702
主题
0
金钱
3166
高清币
212
鲜花
0
阅读权限
50
最后登录
2018-10-22
发表于 2018-4-10 19:16:27 |显示全部楼层
中国高清论坛很棒!
回复

使用道具 举报

1

主题

0

好友

3万

积分

永恒神话

Rank: 10Rank: 10Rank: 10

UID
461197
主题
1
金钱
11867
高清币
5581
鲜花
0
阅读权限
90
QQ
QQ
最后登录
2018-10-22
发表于 2018-4-10 19:16:49 |显示全部楼层
xxxxxxxxxxxxxxxxxxxxxxxxxxxxxxxxxxxxxx
回复

使用道具 举报

期待您加入中国高清论坛QQ交流6群:20818254
 懒得打字嘛,点击右侧快捷回复【左侧自定义内容】  【右侧自定义内容】
您需要登录后才可以回帖 登录 | 立即注册

回顶部