请选择 进入手机版 | 继续访问电脑版

中国高清论坛

 找回密码
 立即注册
查看: 4874|回复: 1214

[动作片] 深海狂鲨2/水深火热2/深海变种2/深蓝的海洋2/深海恶鲨2 Deep.Blue.Sea.2.2018.1080p.BluRay.x264.DTS-HDC 10.27GB

  [复制链接]

6702

主题

0

好友

82万

积分

区域版主

Rank: 8Rank: 8

UID
610038
主题
6702
金钱
15789
高清币
400739
鲜花
2
阅读权限
100
QQ
QQ
最后登录
2018-4-21

白羊座

发表于 6 天前 |显示全部楼层
本帖最后由 ccbby 于 2018-4-19 19:29 编辑


45dc46511a5a93332228f6f519b6a293.jpg

◎译  名 deep blue sea 2
◎片  名 深海狂鲨2/水深火热2/深海变种2/深蓝的海洋2/深海恶鲨2
◎年  代 2018
◎产  地  美国
◎类  别 动作 / 科幻 / 恐怖
◎语  言 英语
◎上映日期 2018-07(美国)
◎导  演 Darin Scott
◎主  演 Danielle Savre
                   Michael Beach
◎简  介

    从最新发布的预告来看,影迷们可以期待和1999年第一部同样的水下“斗”鲨和血腥的场景。
  在续集中,丹尼尔·萨夫雷(Danielle Savre)饰演的鲨鱼保育人士被邀请来为一个和鲨鱼有关的高度机密项目做顾问,而该项目幕后的老板则是由迈克尔·比奇(Michael Beach)饰演的 制药界亿万富翁。
  本片的创意执行曾表示,“这是一部真正意义上的续集。我们希望继续保留《深海狂鲨》的精髓......续集中被用来做研究的鲨鱼来自第一部”。
  “我们已经赋予了片中的鲨鱼主角一个性格并寄希望影迷能接受这样的设定,因为这很有助于故事叙述并且还会达到第一部没有的一种效果。《深海狂鲨2》开始进度可能有点慢但一旦到了关键的情节点剧情就会开始进入佳境。









  1. Video
  2. ID                                       : 1
  3. Format                                   : AVC
  4. Format/Info                              : Advanced Video Codec
  5. Format profile                           : High@L4.1
  6. Format settings                          : CABAC / 4 Ref Frames
  7. Format settings, CABAC                   : Yes
  8. Format settings, ReFrames                : 4 frames
  9. Codec ID                                 : V_MPEG4/ISO/AVC
  10. Duration                                 : 1 h 33 min
  11. Bit rate                                 : 14.1 Mb/s
  12. Width                                    : 1 920 pixels
  13. Height                                   : 1 080 pixels
  14. Display aspect ratio                     : 16:9
  15. Frame rate mode                          : Constant
  16. Frame rate                               : 23.976 (24000/1001) FPS
  17. Color space                              : YUV
  18. Chroma subsampling                       : 4:2:0
  19. Bit depth                                : 8 bits
  20. Scan type                                : Progressive
  21. Bits/(Pixel*Frame)                       : 0.284
  22. Stream size                              : 9.28 GiB (90%)
  23. Title                                    : Deep.Blue.Sea.2.2018.1080p.BluRay.x264.DTS-HDC
  24. Writing library                          : x264 core 148 r2665kMod a01e339
  25. Encoding settings                        : cabac=1 / ref=4 / deblock=1:-3:-3 / analyse=0x3:0x133 / me=umh / subme=11 / psy=1 / fade_compensate=0.00 / psy_rd=1.00:0.00 / mixed_ref=1 / me_range=64 / chroma_me=1 / trellis=2 / 8x8dct=1 / cqm=0 / deadzone=21,11 / fast_pskip=0 / chroma_qp_offset=-2 / threads=34 / lookahead_threads=8 / sliced_threads=0 / nr=0 / decimate=0 / interlaced=0 / bluray_compat=0 / constrained_intra=0 / fgo=0 / bframes=11 / b_pyramid=2 / b_adapt=2 / b_bias=0 / direct=3 / weightb=1 / open_gop=0 / weightp=2 / keyint=240 / keyint_min=24 / scenecut=40 / intra_refresh=0 / rc_lookahead=40 / rc=crf / mbtree=0 / crf=20.2000 / qcomp=0.70 / qpmin=0 / qpmax=69 / qpstep=4 / vbv_maxrate=50000 / vbv_bufsize=40000 / crf_max=0.0 / nal_hrd=none / filler=0 / ip_ratio=1.25 / pb_ratio=1.15 / aq=3:0.80
  26. Language                                 : English
  27. Default                                  : Yes
  28. Forced                                   : No

  29. Audio
  30. ID                                       : 2
  31. Format                                   : DTS
  32. Format/Info                              : Digital Theater Systems
  33. Codec ID                                 : A_DTS
  34. Duration                                 : 1 h 33 min
  35. Bit rate mode                            : Constant
  36. Bit rate                                 : 1 509 kb/s
  37. Channel(s)                               : 6 channels
  38. Channel positions                        : Front: L C R, Side: L R, LFE
  39. Sampling rate                            : 48.0 kHz
  40. Frame rate                               : 93.750 FPS (512 SPF)
  41. Bit depth                                : 24 bits
  42. Compression mode                         : Lossy
  43. Stream size                              : 1 014 MiB (10%)
  44. Title                                    : Deep.Blue.Sea.2.2018.1080p.BluRay.x264.DTS-HDC
  45. Language                                 : English
  46. Default                                  : Yes
  47. Forced                                   : No

  48. Text
  49. ID                                       : 3
  50. Format                                   : UTF-8
  51. Codec ID                                 : S_TEXT/UTF8
  52. Codec ID/Info                            : UTF-8 Plain Text
  53. Duration                                 : 1 h 32 min
  54. Bit rate                                 : 51 b/s
  55. Count of elements                        : 1035
  56. Stream size                              : 34.8 KiB (0%)
  57. Language                                 : English
  58. Default                                  : Yes
  59. Forced                                   : No
复制代码
新片特别推荐


新片特别推荐



血与蜜 Blood.Honey.2018.1080p.WEB-DL.DD5.1.H.264-FGT 3.15GB
加拿大女神演的惊悚片,






红雀/红雀特工(港)/红色麻雀/红燕子/红麻雀/朱雀 RED SPARROW 2018.HC.1080p.HDRip.AC3.KorSub Exclusive 5GB


奥斯卡影后詹妮弗·劳伦斯 奉献从影来最大尺度演出



凭空而来 In.The.Fade.2017.FRENCH.1080p.WEB.H264-NLX5
高分获奖佳片



比得兔 Peter.Rabbit.2018.1080p.BluRay.x264-DRONES 7.69GB
万众期待的彼得兔蓝光来了,这货名气不用说了把 ,没人不爱的经典兔,全家片全家片全家片!





早期人类/石器小英雄(台)/超级无敌世界波(港)Early.Man.2018.1080p.READNFO.HDRip.X264.AC3-EVO 2.63GB不用等世界杯 你现在就可以看到了



与人为恶Backstabbing.for.Beginners.2018.1080p.BluRay.x264.DTS-HD.MA.5.1-MT 11.99GB


================================================



游客,如果您要查看本帖隐藏内容请回复


回复

使用道具 举报

0

主题

0

好友

23

积分

跑龙套

Rank: 1

UID
925976
主题
0
金钱
11
高清币
4
鲜花
0
阅读权限
10
QQ
QQ
最后登录
2018-4-15
发表于 6 天前 |显示全部楼层
感谢楼主大佬,!!!!
回复

使用道具 举报

0

主题

16

好友

18万

积分

永恒神话

Rank: 10Rank: 10Rank: 10

UID
742887
主题
0
金钱
64677
高清币
38187
鲜花
0
阅读权限
90
QQ
QQ
最后登录
2018-4-20
发表于 6 天前 |显示全部楼层
每天都来中国高清论坛看看有什么电影!
回复

使用道具 举报

0

主题

16

好友

18万

积分

永恒神话

Rank: 10Rank: 10Rank: 10

UID
742887
主题
0
金钱
64677
高清币
38187
鲜花
0
阅读权限
90
QQ
QQ
最后登录
2018-4-20
发表于 6 天前 |显示全部楼层
感谢楼主分享精彩电影!
回复

使用道具 举报

0

主题

0

好友

694

积分

知名艺人

Rank: 2

UID
785544
主题
0
金钱
433
高清币
1
鲜花
0
阅读权限
20
QQ
QQ
最后登录
2018-4-18
发表于 6 天前 |显示全部楼层
感谢楼主分享精彩电影!
回复

使用道具 举报

0

主题

2

好友

7057

积分

金鸡奖主角

Rank: 5Rank: 5

UID
169495
主题
0
金钱
3761
高清币
783
鲜花
0
阅读权限
70
QQ
QQ
最后登录
2018-4-20
发表于 6 天前 |显示全部楼层
这部片已经有中文字幕了吗
回复

使用道具 举报

0

主题

0

好友

730

积分

知名艺人

Rank: 2

UID
801855
主题
0
金钱
417
高清币
0
鲜花
0
阅读权限
20
QQ
QQ
最后登录
2018-4-20
发表于 6 天前 |显示全部楼层
这片子能看吗?
回复

使用道具 举报

0

主题

0

好友

2029

积分

人气偶像

Rank: 3Rank: 3

UID
471377
主题
0
金钱
1072
高清币
70
鲜花
0
阅读权限
30
QQ
QQ
最后登录
2018-4-16
发表于 6 天前 |显示全部楼层
看看再说,谢谢分享
回复

使用道具 举报

0

主题

0

好友

6769

积分

金鸡奖主角

Rank: 5Rank: 5

UID
436435
主题
0
金钱
5299
高清币
296
鲜花
0
阅读权限
70
QQ
QQ
最后登录
2018-4-21
发表于 6 天前 |显示全部楼层
thanks a lot
回复

使用道具 举报

0

主题

0

好友

730

积分

知名艺人

Rank: 2

UID
801855
主题
0
金钱
417
高清币
0
鲜花
0
阅读权限
20
QQ
QQ
最后登录
2018-4-20
发表于 6 天前 |显示全部楼层
尼玛拉个比的空间大放辣椒神佛按实际
回复

使用道具 举报

期待您加入中国高清论坛QQ交流3群:101032372
 懒得打字嘛,点击右侧快捷回复【左侧自定义内容】  【右侧自定义内容】
您需要登录后才可以回帖 登录 | 立即注册

回顶部