请选择 进入手机版 | 继续访问电脑版

中国高清论坛

 找回密码
 立即注册
查看: 550|回复: 100

[爱情片] 甜·秘密 Together.2012.1080p.BluRay.X264-aBD 7.64GB

  [复制链接]

1990

主题

13

好友

2万

积分

版主

Rank: 7Rank: 7Rank: 7

UID
327442
主题
1990
金钱
6227
高清币
5965
鲜花
41
阅读权限
100
QQ
QQ
最后登录
2018-4-15
发表于 6 天前 |显示全部楼层



◎译  名 甜·秘密
◎片  名 甜‧祕密
◎年  代 2012
◎产  地 台湾
◎类  别 剧情
◎语  言 汉语普通话
◎上映日期 2012-11-30(台湾)
◎IMDb评分  2.4/10 from 401 users
◎IMDb链接  http://www.imdb.com/title/tt2417568/
◎豆瓣评分 6.4/10 from 929 users
◎豆瓣链接 https://movie.douban.com/subject/13934405/
◎片  长 114分钟
◎导  演 许肇任 Chao-Jen Hsu
◎主  演 隋棠 Sonia Sui
      李烈 Lieh Li
      马志翔 Umin Boya
      钟镇涛 Kenny Bee
      李千娜 Gina Li

◎简  介

  小杨是一名正值青春的青涩少年,岁月更替,他之中睁着充满了好奇与希冀的双眼,打量着这个不断变化着的世界和身边不断成长的朋友们。让小杨感到在意的是,似乎是在突然之间,他周围的所有人似乎都陷入了感情漩涡之中。
  小杨的父亲阿宾(钟镇涛 饰)认识了邻居小莉(隋棠 饰),趣味相投的两人之间距离越来越近,母亲敏敏(李烈 饰)亦将感情转移到了和她熟识的裁缝(马志翔 饰)身上,与此同时,小杨的好友小马(巫建和 饰)亦陷入了三角恋的情感风波中,时常殃及小杨。看着每个人脸上困苦的表情,小杨开始思考起来,如果爱情带来的只有波折和悲伤,那我们为什么还要爱呢?

◎获奖情况

  第50届台北金马影展  (2013)
  金马奖 最佳新导演(提名) 许肇任
  金马奖 最佳新演员(提名) 黄劭扬
  金马奖 最佳原创歌曲(提名)

  第7届亚洲电影大奖  (2013)
  最佳女配角(提名) 李烈

  第17届釜山国际电影节  (2012)
  新浪潮奖(提名) 许肇任

  第15届台北电影节  (2013)
  台北电影奖 最佳剧情长片(提名) 许肇任
  台北电影奖 最佳新演员奖 黄劭扬
  台北电影奖 媒体推荐奖
  国际青年导演竞赛 特别推荐 许肇任
  国际青年导演竞赛 最佳影片(提名) 许肇任
  1. Video
  2. ID                                       : 1
  3. Format                                   : AVC
  4. Format/Info                              : Advanced Video Codec
  5. Format profile                           : High@L4.1
  6. Format settings                          : CABAC / 4 Ref Frames
  7. Format settings, CABAC                   : Yes
  8. Format settings, ReFrames                : 4 frames
  9. Codec ID                                 : V_MPEG4/ISO/AVC
  10. Duration                                 : 1 h 54 min
  11. Bit rate                                 : 8 079 kb/s
  12. Width                                    : 1 920 pixels
  13. Height                                   : 1 080 pixels
  14. Display aspect ratio                     : 16:9
  15. Frame rate mode                          : Constant
  16. Frame rate                               : 24.000 FPS
  17. Color space                              : YUV
  18. Chroma subsampling                       : 4:2:0
  19. Bit depth                                : 8 bits
  20. Scan type                                : Progressive
  21. Bits/(Pixel*Frame)                       : 0.162
  22. Stream size                              : 6.29 GiB (82%)
  23. Writing library                          : x264 core 133 r2334 a3ac64b
  24. Encoding settings                        : cabac=1 / ref=4 / deblock=1:-1:-1 / analyse=0x3:0x113 / me=umh / subme=7 / psy=1 / psy_rd=1.00:0.00 / mixed_ref=1 / me_range=16 / chroma_me=1 / trellis=1 / 8x8dct=1 / cqm=0 / deadzone=21,11 / fast_pskip=1 / chroma_qp_offset=-2 / threads=12 / lookahead_threads=2 / sliced_threads=0 / nr=0 / decimate=1 / interlaced=0 / bluray_compat=0 / constrained_intra=0 / bframes=3 / b_pyramid=2 / b_adapt=2 / b_bias=0 / direct=3 / weightb=1 / open_gop=0 / weightp=2 / keyint=250 / keyint_min=24 / scenecut=40 / intra_refresh=0 / rc_lookahead=40 / rc=2pass / mbtree=1 / bitrate=8079 / ratetol=1.0 / qcomp=0.60 / qpmin=0 / qpmax=69 / qpstep=4 / cplxblur=20.0 / qblur=0.5 / vbv_maxrate=50000 / vbv_bufsize=50000 / nal_hrd=none / ip_ratio=1.40 / aq=1:1.00
  25. Language                                 : Chinese
  26. Default                                  : Yes
  27. Forced                                   : No

  28. Audio
  29. ID                                       : 2
  30. Format                                   : DTS
  31. Format/Info                              : Digital Theater Systems
  32. Codec ID                                 : A_DTS
  33. Duration                                 : 1 h 54 min
  34. Bit rate mode                            : Constant
  35. Bit rate                                 : 1 509 kb/s
  36. Channel(s)                               : 6 channels
  37. Channel positions                        : Front: L C R, Side: L R, LFE
  38. Sampling rate                            : 48.0 kHz
  39. Frame rate                               : 93.750 FPS (512 SPF)
  40. Bit depth                                : 24 bits
  41. Compression mode                         : Lossy
  42. Stream size                              : 1.20 GiB (16%)
  43. Language                                 : Chinese
  44. Default                                  : Yes
  45. Forced                                   : No

  46. Text
  47. ID                                       : 3
  48. Format                                   : UTF-8
  49. Codec ID                                 : S_TEXT/UTF8
  50. Codec ID/Info                            : UTF-8 Plain Text
  51. Language                                 : English
  52. Default                                  : Yes
  53. Forced                                   : No
复制代码







游客,如果您要查看本帖隐藏内容请回复
回复

使用道具 举报

0

主题

0

好友

601

积分

知名艺人

Rank: 2

UID
784776
主题
0
金钱
435
高清币
0
鲜花
0
阅读权限
20
QQ
QQ
最后登录
2018-4-20
发表于 6 天前 |显示全部楼层
中国高清论坛很棒!
回复

使用道具 举报

0

主题

0

好友

1951

积分

人气偶像

Rank: 3Rank: 3

UID
722881
主题
0
金钱
1124
高清币
0
鲜花
0
阅读权限
30
QQ
QQ
最后登录
2018-4-17
发表于 6 天前 |显示全部楼层
每天都来中国高清论坛看看有什么电影!
回复

使用道具 举报

0

主题

0

好友

2万

积分

superstar

Rank: 9Rank: 9Rank: 9

UID
189129
主题
0
金钱
13805
高清币
120
鲜花
0
阅读权限
90
QQ
QQ
最后登录
2018-4-21
发表于 6 天前 |显示全部楼层
每天都来中国高清论坛看看有什么电影!
回复

使用道具 举报

0

主题

0

好友

127

积分

跑龙套

Rank: 1

UID
927030
主题
0
金钱
38
高清币
29
鲜花
0
阅读权限
10
QQ
QQ
最后登录
2018-4-18
发表于 6 天前 |显示全部楼层
感谢楼主的无私分享!
回复

使用道具 举报

0

主题

0

好友

1053

积分

人气偶像

Rank: 3Rank: 3

UID
814358
主题
0
金钱
650
高清币
0
鲜花
0
阅读权限
30
QQ
QQ
最后登录
2018-4-15
发表于 6 天前 |显示全部楼层
我看不错噢 谢谢楼主!
回复

使用道具 举报

0

主题

0

好友

767

积分

知名艺人

Rank: 2

UID
918130
主题
0
金钱
329
高清币
101
鲜花
0
阅读权限
20
QQ
QQ
最后登录
2018-4-19
发表于 6 天前 |显示全部楼层
中国高清论坛很棒!
回复

使用道具 举报

0

主题

0

好友

6416

积分

金鸡奖主角

Rank: 5Rank: 5

UID
895684
主题
0
金钱
2072
高清币
1269
鲜花
0
阅读权限
70
QQ
QQ
最后登录
2018-4-18
发表于 6 天前 |显示全部楼层
既然你诚信诚意的推荐了,那我就勉为其难的看看吧!
回复

使用道具 举报

0

主题

0

好友

4265

积分

天王巨星

Rank: 4

UID
657558
主题
0
金钱
2295
高清币
1
鲜花
0
阅读权限
50
QQ
QQ
最后登录
2018-4-20
发表于 6 天前 |显示全部楼层
每天都来中国高清论坛看看有什么电影!
回复

使用道具 举报

0

主题

0

好友

2096

积分

人气偶像

Rank: 3Rank: 3

UID
694802
主题
0
金钱
906
高清币
330
鲜花
0
阅读权限
30
QQ
QQ
最后登录
2018-4-15
发表于 6 天前 |显示全部楼层
感谢楼主分享精彩电影!
回复

使用道具 举报

期待您加入中国高清论坛QQ交流3群:101032372
 懒得打字嘛,点击右侧快捷回复【左侧自定义内容】  【右侧自定义内容】
您需要登录后才可以回帖 登录 | 立即注册

回顶部