请选择 进入手机版 | 继续访问电脑版

中国高清论坛

 找回密码
 立即注册
查看: 16225|回复: 2783

[奇幻片] 西游记·女儿国/西游记之女儿国 [国语中字]The.Monkey.King.III.Kingdom.of.Women.2018.1080p.BluRay.x264.DTS-HD.MA.7.1-HDC 17.60GB

  [复制链接]

1万

主题

0

好友

163万

积分

超级版主

太空怪人

Rank: 8Rank: 8

UID
610038
主题
11752
金钱
26510
高清币
799830
鲜花
2
阅读权限
150
QQ
QQ
最后登录
2018-10-19
发表于 2018-5-13 15:20:40 |显示全部楼层
本帖最后由 ccbby 于 2018-5-20 08:48 编辑


200538_front.jpg

◎译  名 西游记·女儿国/西游记之女儿国
◎片  名 西游记女儿国
◎年  代 2018
◎产  地 中国大陆/香港
◎类  别 喜剧/爱情/奇幻
◎语  言 汉语普通话
◎上映日期 2018-02-16(中国大陆)
◎IMDb评分  5.6/10 from 204 users
◎豆瓣评分 4.7/10 from 51,271 users
◎片  长 116分钟
◎导  演 郑保瑞 Pou-Soi Cheang
◎主  演 郭富城 Aaron Kwok
      冯绍峰 Shaofeng Feng
      赵丽颖 Liying Zhao
      小沈阳 Xiao Shen-Yang
      罗仲谦 Chung Him Law
      林志玲 Chiling Lin
      梁咏琪 Gigi Leung
      刘涛 Tao Liu
      孙伊涵 Yihan Sun
      苑琼丹 King-Tan Yuen
      潘斌龙 Bin-long Pan
      陈雅丽 Allie Chan
      施诗 Shi Shi

◎简  介

  唐僧师徒途经忘川河,因激怒河神而误入西梁女界。闯入其中,众人才发现这个国家只有女性,并且建国以来此地就没来过男性。而且国中立有祖训,将男人视为天敌。典籍中更有预言,指明有朝一日,会有东土而来的僧人带着一只猴子、一头猪和一个小蓝人闯入其中。他们到来之日,便是女儿国走向毁灭之时。
  1. Video
  2. ID                                       : 1
  3. Format                                   : AVC
  4. Format/Info                              : Advanced Video Codec
  5. Format profile                           : High@L4.1
  6. Format settings                          : CABAC / 5 Ref Frames
  7. Format settings, CABAC                   : Yes
  8. Format settings, ReFrames                : 5 frames
  9. Codec ID                                 : V_MPEG4/ISO/AVC
  10. Duration                                 : 1 h 54 min
  11. Bit rate                                 : 16.0 Mb/s
  12. Width                                    : 1 920 pixels
  13. Height                                   : 1 040 pixels
  14. Display aspect ratio                     : 1.85:1
  15. Frame rate mode                          : Constant
  16. Frame rate                               : 24.000 FPS
  17. Color space                              : YUV
  18. Chroma subsampling                       : 4:2:0
  19. Bit depth                                : 8 bits
  20. Scan type                                : Progressive
  21. Bits/(Pixel*Frame)                       : 0.334
  22. Stream size                              : 12.7 GiB (72%)
  23. Title                                    : FFlipped @ HDChina
  24. Writing library                          : x264 core 142 r2431+42 c69a006 tMod [8-bit@all X86_64]
  25. Encoding settings                        : cabac=1 / ref=5 / deblock=1:-2:-2 / analyse=0x3:0x133 / me=umh / subme=11 / psy=1 / fade_compensate=0.00 / psy_rd=1.10:0.00 / mixed_ref=1 / me_range=64 / chroma_me=1 / trellis=2 / 8x8dct=1 / cqm=0 / deadzone=21,11 / fast_pskip=0 / chroma_qp_offset=-2 / threads=84 / lookahead_threads=7 / sliced_threads=0 / nr=0 / decimate=0 / interlaced=0 / bluray_compat=0 / constrained_intra=0 / fgo=0 / bframes=10 / b_pyramid=2 / b_adapt=2 / b_bias=0 / direct=3 / weightb=1 / open_gop=0 / weightp=2 / keyint=240 / keyint_min=24 / scenecut=40 / intra_refresh=0 / rc_lookahead=40 / rc=2pass / mbtree=0 / bitrate=16000 / ratetol=1.0 / qcomp=0.70 / qpmin=0:0:0 / qpmax=69:69:69 / qpstep=4 / cplxblur=20.0 / qblur=0.5 / vbv_maxrate=50000 / vbv_bufsize=45000 / nal_hrd=none / filler=0 / ip_ratio=1.10 / pb_ratio=1.15 / aq=3:0.95 / aq-sensitivity=10.00 / aq-factor=1.00:1.00:1.00 / aq2=0 / aq3=0
  26. Default                                  : Yes
  27. Forced                                   : No

  28. Audio
  29. ID                                       : 2
  30. Format                                   : DTS
  31. Format/Info                              : Digital Theater Systems
  32. Format profile                           : MA / Core
  33. Codec ID                                 : A_DTS
  34. Duration                                 : 1 h 54 min
  35. Bit rate mode                            : Variable / Constant
  36. Bit rate                                 : 6 093 kb/s / 1 509 kb/s
  37. Channel(s)                               : 8 channels / 6 channels
  38. Channel positions                        : Front: L C R, Side: L R, Back: L R, LFE / Front: L C R, Side: L R, LFE
  39. Sampling rate                            : 48.0 kHz
  40. Frame rate                               : 93.750 FPS (512 SPF)
  41. Bit depth                                : 24 bits
  42. Compression mode                         : Lossless / Lossy
  43. Stream size                              : 4.85 GiB (28%)
  44. Language                                 : Chinese
  45. Default                                  : Yes
  46. Forced                                   : No

  47. Text
  48. ID                                       : 3
  49. Format                                   : PGS
  50. Muxing mode                              : zlib
  51. Codec ID                                 : S_HDMV/PGS
  52. Codec ID/Info                            : Picture based subtitle format used on BDs/HD-DVDs
  53. Duration                                 : 1 h 48 min
  54. Bit rate                                 : 15.5 kb/s
  55. Count of elements                        : 2363
  56. Stream size                              : 12.0 MiB (0%)
  57. Language                                 : Chinese
  58. Default                                  : Yes
  59. Forced                                   : No

  60. Menu
  61. 00:00:00.000                             : en:00:00:00.000
  62. 00:09:26.042                             : en:00:09:26.042
  63. 00:21:21.500                             : en:00:21:21.500
  64. 00:31:10.917                             : en:00:31:10.917
  65. 00:39:21.000                             : en:00:39:21.000
  66. 00:52:59.542                             : en:00:52:59.542
  67. 01:01:58.875                             : en:01:01:58.875
  68. 01:09:56.292                             : en:01:09:56.292
  69. 01:21:42.167                             : en:01:21:42.167
  70. 01:29:18.375                             : en:01:29:18.375
  71. 01:42:01.042                             : en:01:42:01.042
  72. 01:47:01.375                             : en:01:47:01.375
复制代码




[漫威宇宙/18部合集][HEVC][1080P][国英双语][特效中英双字][原盘压制]

游客,如果您要查看本帖隐藏内容请回复,如不想回复请点击赞助VIP贵宾:https://item.taobao.com/item.htm?id=540849877691


回复

使用道具 举报

1

主题

27

好友

9万

积分

永恒神话

Rank: 10Rank: 10Rank: 10

UID
875063
主题
1
金钱
29828
高清币
19518
鲜花
5
阅读权限
90
QQ
QQ
最后登录
2018-10-18
发表于 2018-5-13 15:23:01 |显示全部楼层
既然你诚信诚意的推荐了,那我就勉为其难的看看吧!
回复

使用道具 举报

0

主题

0

好友

2万

积分

superstar

Rank: 9Rank: 9Rank: 9

UID
372248
主题
0
金钱
11991
高清币
5055
鲜花
0
阅读权限
90
QQ
QQ
最后登录
2018-10-18
发表于 2018-5-13 15:23:13 |显示全部楼层
感谢楼主分享精彩电影!
回复

使用道具 举报

0

主题

0

好友

1万

积分

影坛巨星

Rank: 8Rank: 8

UID
925568
主题
0
金钱
5914
高清币
4034
鲜花
0
阅读权限
90
QQ
QQ
最后登录
2018-8-13
发表于 2018-5-13 15:24:13 |显示全部楼层
感谢楼主分享精彩电影!
回复

使用道具 举报

0

主题

0

好友

7355

积分

金鸡奖主角

Rank: 5Rank: 5

UID
371419
主题
0
金钱
4287
高清币
180
鲜花
0
阅读权限
70
QQ
QQ
最后登录
2018-10-18
发表于 2018-5-13 15:24:44 |显示全部楼层
感谢楼主分享精彩电影!
回复

使用道具 举报

0

主题

0

好友

1万

积分

超级明星

Rank: 7Rank: 7Rank: 7

UID
334447
主题
0
金钱
5779
高清币
1230
鲜花
0
阅读权限
90
QQ
QQ
最后登录
2018-10-18
发表于 2018-5-13 15:25:06 手机频道 |显示全部楼层
中国高清论坛很棒!
回复

使用道具 举报

0

主题

0

好友

7355

积分

金鸡奖主角

Rank: 5Rank: 5

UID
371419
主题
0
金钱
4287
高清币
180
鲜花
0
阅读权限
70
QQ
QQ
最后登录
2018-10-18
发表于 2018-5-13 15:25:20 |显示全部楼层
感谢楼主分享精彩电影!
回复

使用道具 举报

0

主题

0

好友

1万

积分

影坛巨星

Rank: 8Rank: 8

UID
925568
主题
0
金钱
5914
高清币
4034
鲜花
0
阅读权限
90
QQ
QQ
最后登录
2018-8-13
发表于 2018-5-13 15:27:58 |显示全部楼层
中国高清论坛很棒!
回复

使用道具 举报

12

主题

0

好友

4354

积分

天王巨星

Rank: 4

UID
318763
主题
12
金钱
2979
高清币
111
鲜花
0
阅读权限
50
QQ
QQ
最后登录
2018-10-18
发表于 2018-5-13 15:33:47 |显示全部楼层
楼主分享的高清电影太好了!
回复

使用道具 举报

1

主题

0

好友

9153

积分

金鸡奖主角

Rank: 5Rank: 5

UID
216936
主题
1
金钱
5872
高清币
0
鲜花
0
阅读权限
70
QQ
QQ
最后登录
2018-10-18
发表于 2018-5-13 15:36:09 |显示全部楼层
每天都来中国高清论坛看看有什么电影!
回复

使用道具 举报

期待您加入中国高清论坛QQ交流6群:20818254
 懒得打字嘛,点击右侧快捷回复【左侧自定义内容】  【右侧自定义内容】
您需要登录后才可以回帖 登录 | 立即注册

回顶部