请选择 进入手机版 | 继续访问电脑版

中国高清论坛

 找回密码
 立即注册
查看: 622|回复: 123

[惊悚片] 红雀/红雀特工(港) / 红色麻雀/红燕子/红麻雀 /朱雀Red Sparrow 2018 1080p HC HDRip AAC 2.0 x264 [MW] 2GB

  [复制链接]

6702

主题

0

好友

82万

积分

区域版主

Rank: 8Rank: 8

UID
610038
主题
6702
金钱
15789
高清币
400737
鲜花
2
阅读权限
100
QQ
QQ
最后登录
2018-4-21

白羊座

发表于 5 天前 |显示全部楼层




红雀 Red Sparrow (2018)


导演: 弗朗西斯·劳伦斯
编剧: 贾斯汀·海瑟 / 杰森·马修斯
主演: 詹妮弗·劳伦斯 / 乔尔·埃哲顿 / 马提亚斯·修奈尔 / 夏洛特·兰普林 / 玛丽·露易斯·帕克 / 更多...
类型: 剧情 / 悬疑 / 惊悚
制片国家/地区: 美国
语言: 英语 / 俄语
上映日期: 2018-03-02(美国)
片长: 139分钟
又名: 红雀特工(港) / 红色麻雀 / 红燕子 / 红麻雀 / 朱雀
IMDb链接: tt2873282



红雀的剧情简介 · · · · · ·

  小说《红燕子》2012年六月份出版,讲述了一位当代俄罗斯的美女间谍多米尼卡·叶戈罗娃(Dominika Egorova )在不情愿的情况下被克格勃训练成为一名“燕子”(克格勃色情间谍的代号,男性称为乌鸦),之后被派去勾引一名美国的中情局特工内森尼尔·纳什(Nathaniel Nash)以获取美国打入俄罗斯内部的间谍名单。然而多米尼卡与纳什这两个年轻人却碰撞出了爱情的火花,之后多米尼卡为了报复那些把她训练成“燕子”的同僚,主动选择成为一名为中情局服务的双重间谍。在她的帮助下,俄罗斯安插在美国华盛顿和军方的高级间谍纷纷被揪了出来,而她也将排除万难,重回莫斯科,成为普京身边的美国眼线……

  1. General
  2. Format : Matroska
  3. Format version : Version 4 / Version 2
  4. File size : 1.99 GiB
  5. Duration : 2 h 15 min
  6. Overall bit rate : 2 099 kb/s

  7. Video
  8. ID : 1
  9. Format : AVC
  10. Format/Info : Advanced Video Codec
  11. Format profile : High@L4.1
  12. Format settings : CABAC / 4 Ref Frames
  13. Format settings, CABAC : Yes
  14. Format settings, RefFrames : 4 frames
  15. Codec ID : V_MPEG4/ISO/AVC
  16. Duration : 2 h 15 min
  17. Bit rate : 2 000 kb/s
  18. Width : 1 904 pixels
  19. Height : 800 pixels
  20. Display aspect ratio : 2.40:1
  21. Frame rate mode : Constant
  22. Frame rate : 29.970 (30000/1001) FPS
  23. Color space : YUV
  24. Chroma subsampling : 4:2:0
  25. Bit depth : 8 bits
  26. Scan type : Progressive
  27. Bits/(Pixel*Frame) : 0.044
  28. Stream size : 1.87 GiB (94%)
  29. Writing library : x264 core 155 r2893 b00bcaf
  30. Default : Yes
  31. Forced : No

  32. Audio
  33. ID : 2
  34. Format : AAC
  35. Format/Info : Advanced Audio Codec
  36. Format profile : LC
  37. Codec ID : A_AAC-2
  38. Duration : 2 h 15 min
  39. Bit rate : 128 kb/s
  40. Channel(s) : 2 channels
  41. Channel positions : Front: L R
  42. Sampling rate : 48.0 kHz
  43. Frame rate : 46.875 FPS (1024 SPF)
  44. Compression mode : Lossy
  45. Stream size : 124 MiB (6%)
  46. Language : English
  47. Default : Yes
  48. Forced : No
复制代码








游客,如果您要查看本帖隐藏内容请回复




回复

使用道具 举报

1

主题

39

好友

13万

积分

永恒神话

Rank: 10Rank: 10Rank: 10

UID
196143
主题
1
金钱
49867
高清币
27372
鲜花
0
阅读权限
90
QQ
QQ
最后登录
2018-4-21
发表于 5 天前 |显示全部楼层
楼主分享的高清电影太好了!
回复

使用道具 举报

0

主题

0

好友

3474

积分

天王巨星

Rank: 4

UID
783506
主题
0
金钱
1974
高清币
2
鲜花
0
阅读权限
50
QQ
QQ
最后登录
2018-4-20
发表于 5 天前 |显示全部楼层
感谢楼主分享精彩电影!
回复

使用道具 举报

0

主题

1

好友

4万

积分

永恒神话

Rank: 10Rank: 10Rank: 10

UID
82340
主题
0
金钱
12781
高清币
10720
鲜花
0
阅读权限
90
QQ
QQ
最后登录
2018-4-21
发表于 5 天前 |显示全部楼层
楼主分享的高清电影太好了!
回复

使用道具 举报

0

主题

1

好友

1934

积分

人气偶像

Rank: 3Rank: 3

UID
145507
主题
0
金钱
1543
高清币
19
鲜花
0
阅读权限
30
QQ
QQ
最后登录
2018-4-19
发表于 5 天前 |显示全部楼层
感谢分享精彩好电影!!!
回复

使用道具 举报

0

主题

0

好友

1万

积分

超级明星

Rank: 7Rank: 7Rank: 7

UID
90793
主题
0
金钱
4021
高清币
4242
鲜花
0
阅读权限
90
QQ
QQ
最后登录
2018-4-19
发表于 5 天前 |显示全部楼层
感谢楼主分享精彩电影!
回复

使用道具 举报

2

主题

0

好友

3456

积分

天王巨星

Rank: 4

UID
50104
主题
2
金钱
2480
高清币
15
鲜花
0
阅读权限
50
QQ
QQ
最后登录
2018-4-19
发表于 5 天前 |显示全部楼层
每天都来中国高清论坛看看有什么电影!
回复

使用道具 举报

0

主题

0

好友

1839

积分

人气偶像

Rank: 3Rank: 3

UID
922577
主题
0
金钱
543
高清币
402
鲜花
0
阅读权限
30
QQ
QQ
最后登录
2018-4-21
发表于 5 天前 |显示全部楼层
呵呵我很开心~~~
回复

使用道具 举报

0

主题

0

好友

3257

积分

天王巨星

Rank: 4

UID
750506
主题
0
金钱
1511
高清币
308
鲜花
0
阅读权限
50
QQ
QQ
最后登录
2018-4-20
发表于 5 天前 |显示全部楼层
sssssssssssssss
回复

使用道具 举报

0

主题

1

好友

3716

积分

天王巨星

Rank: 4

UID
808890
主题
0
金钱
1569
高清币
579
鲜花
0
阅读权限
50
QQ
QQ
最后登录
2018-4-20
发表于 5 天前 |显示全部楼层
每天都来中国高清论坛看看有什么
回复

使用道具 举报

期待您加入中国高清论坛QQ交流3群:101032372
 懒得打字嘛,点击右侧快捷回复【左侧自定义内容】  【右侧自定义内容】
您需要登录后才可以回帖 登录 | 立即注册

回顶部