请选择 进入手机版 | 继续访问电脑版

中国高清论坛

 找回密码
 立即注册
查看: 353|回复: 79

[动作片] 神机箭 The.Divine.Weapon.2008.1080p.BluRay.x264-aBD 10.91 GiB

  [复制链接]

1万

主题

0

好友

5万

积分

区域版主

Rank: 8Rank: 8

UID
13244
主题
10891
金钱
25757
高清币
10716
鲜花
-89
阅读权限
100
QQ
QQ
最后登录
2018-4-20
发表于 5 天前 |显示全部楼层



◎译  名 神机箭
◎片  名 Shingijun
◎年  代 2008
◎国  家 韩国
◎类  别 剧情
◎语  言 韩语
◎IMDB评分 6.2/10 12 votes
◎IMDB链接 http://www.imdb.com/title/tt1185594
◎片  长 134mins
◎导  演 金裕珍 Yu-jin Kim
◎主  演 郑在泳 Jae-yeong Jeong
      韩恩贞 Eun-jeong Han
      安圣基 Seong-gi Ahn
      许俊豪 Joon-ho Hur
      丁圣模 Seong-mo Jeong
      李道京 Do-gyung Lee
      朴正哲 Jeong-cheol Park
      李荣 Kyeong-yeong Lee
      柳贤静 Hyeon-kyeong Ryu
      都易成 Il-seung Do

◎简  介 



  影片主要讲述了1448年,朝鲜世宗时期朝鲜人民开发秘密兵器--一次能发射100支箭的秘密兵器“神机箭”的故事。“神机箭”被韩国人号称是世界上最早的连发火箭炮,诞生于朝鲜王朝初期,是根据高丽王朝末期最先进的武器改造而成的。作为当时最厉害的兵器,神机箭对于整个朝鲜王朝的安全保障起到了重要作用。为此,世宗大王全力支持开发这种秘密武器。



幕后制作

  野心喧嚣的韩国史诗巨片

  影片讲述朝鲜时代打造神奇兵器“神机箭”的故事,整个从筹备到拍摄完毕花费了将近六年的时间。神机箭是韩国人引以为荣的“世界上最早的连发炮”一次能连发100支箭,上到统治者世宗,下到普通黎民都全力开发的神奇武器。片中的神机箭是剧组花费了一年多的时候研究根据历史真实的神机箭设计图还原而成的,无论是外型还是内里功能都尽量保持原先的风貌。在曝光的预告片中,朝鲜军队与明朝十万兵马对抗的场面在网上引起了强烈的反响,郑在泳扮演的“薛洙”在战场上所向披靡,点燃的神机箭齐发向对手,遮天蔽日的气势不输于《英雄》和《满城尽带黄金甲》中的昂扬轰烈。

  导演金裕珍是第一次执导古装题材的电影,前作《承诺》和《汉城警视厅》都是口碑不错的片子,此次也再次携手了于《汉城警视厅》合作过的编剧李万熙,后者光是草本的创作就历时三年。

  这是08年CJ娱乐在推出《公共之敌3》、《好家伙,坏家伙,怪家伙》后第三部的大作之一,上映日期也是一再商讨,最终决定避开暑期档好莱坞的抢市,在中秋节突围票房。100亿韩元的投资比起忠武路的全盛时期当然不算是大制作,但是在不景气的今天来说,已经算是一次“大胆的冒险”。总共进行了119次拍摄的《神机箭》将展现古代近十万人大战的宏伟场面,赶制了大量的箭车和弓箭,在庆尚北道进行最后场面的实地拍摄时,数百支箭同时发出,巨大的炮鸣声响彻云端,反复拍摄了五次之多,耗费的箭达数千支之多。剧组精益求精的态度可见。

花絮

  郑在泳:振兴电影 匹夫有责

  郑在泳饰演的“薛洙”是一个兼有不错的身手和高明头脑的商人,平常人看来是个风流的“闲人”,其实是出身于朝鲜第一检验科,武功造诣深厚的个性人物。郑在泳和CJ娱乐签下合约,将片酬的一半拿出来当做投资的费用,当影片赢利时,他会获得相应比例的收益。尽管这在当下不景气的本土电影圈内,已经不算是新鲜之举,但对于片酬本来就未属“大牌级别”的郑在泳来说,他的这一自动“减薪”同制作方同甘共苦的精神还是令CJ娱乐方面颇为感动。

  韩恩贞:“男人森林”里的一枝花

  《男人的香气》、《明朗少女成功记》和《浪漫满屋》等电视剧中,都能看到韩恩贞演绎的生动精彩的“恶女”,近年来她终于“多年的媳妇熬成婆”,成为热播的《大韩民国律师》和本片女主角。韩媒也评价其为“过去被低估了能力和受冷落的一位优秀演员”,这也是她第一次挑战历史题材的片子。

  在《神机箭》的发布会上,韩恩贞没有掩藏在拍摄过程中自信不足导致有点吃力的心情:“尽管在开机前做了很多的准备,包括读剧本和看相关的背景史料,但在实际拍摄中特别是后半段的时间里,我一度对台词的咬嚼非常困难,担心自己的表现达不到导演的要求而影响整部片子的水准。”因此在没有戏份的时候,她常花比别的主演多几倍的时间去练习角色的表演。

  她还透露以前觉得演员纯粹是职业,镜头关掉,自己和角色就可以完全分离:“过去这么想的,不过这次的拍摄让我觉得演员的灵魂是属于观众的,我比以前更爱这个事业。”身边的前辈安胜基和郑在泳却言韩恩贞是过谦了,其实她的表现很出色。由于影片的多数镜头需要在外景拍摄,森林里战场上的男人们骁勇善战,而其实也有很“狼狈”的一面:“最难忘的是在河边拍摄男人们脱光上衣裸露的场景,当地的蚊虫很多,大家吃了不少苦头,不过还是一直坚持着。”作为唯一的女主演,韩恩贞也得到了男演员们的“绅士优待”:“最好玩的是郑在泳,经常在吃饭的时候倡议大家把肉全都给我,因为看着我这么不‘强壮’”。

  另外,父亲,警察,经纪人,总统……到这次在韩历史上赫赫有名的世宗大王安圣基称为“很兴奋的一次拍摄”,皇帝的举止神韵当然难不到这位有着丰富演艺经验的“戏骨”,而导演也盛赞为“除了他,我想不到还有更适合演这个角色的演员”。

规模最大的外景跋涉征程

  制作方是抱着“21世纪韩国电影的大片”水准来拍摄的,从筹备到杀青,本片历时了5年8个月的时间,光是前期资料的搜集和剧本的修改就花费了4年6个月。严谨的历史考证力求再现的真实度,剧组构筑的心血可见一斑。从在原州拍摄第一个镜头起,到首尔、民俗村按东……横跨了几乎整个大韩半岛,难怪有工作人员自称是一次“标尺刻度大得惊人的大长征之旅,几乎把整个国家都转了遍。”

  首次被允许到景福皇宫进行实地拍摄的电影

  为了拍摄片中军队在日暮出战,燕子飞入皇宫的庄美场面,剧组经过波折终于得到有关部门的同意,到景福宫进行实地拍摄。只有一天的拍摄时间,却动用了5台摄像机,500多名临时演员。尽管镜头拍下来,工作人员全都劳累不已,但都非常兴奋和自豪:“期待观众也能和我们一样被这些场景震撼和感动。”

  史上耗费拍摄时间最长的结局场面

  结尾世宗的精锐部队和明朝十万大军作战的场面,剧组花费了两个月的时间才大功告成,动用了5000多名的临时演员,发射了近3000支弓箭,为了能制作出精美的3G合成效果,还在现场设置了高8米,长70米的蓝屏。光是看到这组数据,就可以想象得到最后场面的精巧雄伟。

  忠武路历史电影制作高手的全体总动员

  制作方细致考证了朝鲜初期的时代面貌,片中历史场面的设计成了最大的课题。不仅请来了韩国著名的科学家对朝鲜人引以为豪的武器遗产神机箭进行最大程度的复原研究,而且花40亿韩元投入到皇宫神机箭研究室建筑的修建。视觉效果的打造,花重金请到了《怪物》的原创队伍,细到每一张电脑的设计图纸,都经过了反复的修改,服装指导方面请到了《黄真伊》、《丑闻》的原班人马,而对白也严格地按照高丽时期的语言习惯进行,邀请到曾参与了《血之泪》制作的历史指导。
  1. Video
  2. ID                                       : 1
  3. Format                                   : AVC
  4. Format/Info                              : Advanced Video Codec
  5. Format profile                           : High@L4.1
  6. Format settings                          : CABAC / 5 Ref Frames
  7. Format settings, CABAC                   : Yes
  8. Format settings, ReFrames                : 5 frames
  9. Codec ID                                 : V_MPEG4/ISO/AVC
  10. Duration                                 : 2 h 14 min
  11. Bit rate                                 : 10.1 Mb/s
  12. Width                                    : 1 920 pixels
  13. Height                                   : 816 pixels
  14. Display aspect ratio                     : 2.35:1
  15. Frame rate mode                          : Constant
  16. Frame rate                               : 23.976 FPS
  17. Color space                              : YUV
  18. Chroma subsampling                       : 4:2:0
  19. Bit depth                                : 8 bits
  20. Scan type                                : Progressive
  21. Bits/(Pixel*Frame)                       : 0.270
  22. Stream size                              : 9.28 GiB (85%)
  23. Writing library                          : x264 core 67 r1165 6841c5e
  24. Encoding settings                        : cabac=1 / ref=5 / deblock=1:-1:-1 / analyse=0x3:0x113 / me=umh / subme=7 / psy_rd=1.0:0.0 / mixed_ref=1 / me_range=16 / chroma_me=1 / trellis=2 / 8x8dct=1 / cqm=0 / deadzone=21,11 / chroma_qp_offset=-2 / threads=6 / nr=0 / decimate=1 / mbaff=0 / bframes=3 / b_pyramid=0 / b_adapt=2 / b_bias=0 / direct=3 / wpredb=1 / keyint=250 / keyint_min=25 / scenecut=40 / rc=2pass / bitrate=10132 / ratetol=1.0 / qcomp=0.60 / qpmin=10 / qpmax=51 / qpstep=4 / cplxblur=20.0 / qblur=0.5 / vbv_maxrate=50000 / vbv_bufsize=50000 / ip_ratio=1.40 / pb_ratio=1.30 / aq=1:1.00
  25. Language                                 : Korean
  26. Default                                  : Yes
  27. Forced                                   : No

  28. Audio
  29. ID                                       : 2
  30. Format                                   : DTS
  31. Format/Info                              : Digital Theater Systems
  32. Codec ID                                 : A_DTS
  33. Duration                                 : 2 h 14 min
  34. Bit rate mode                            : Constant
  35. Bit rate                                 : 1 509 kb/s
  36. Channel(s)                               : 6 channels
  37. Channel positions                        : Front: L C R, Side: L R, LFE
  38. Sampling rate                            : 48.0 kHz
  39. Frame rate                               : 93.750 FPS (512 SPF)
  40. Bit depth                                : 16 bits
  41. Compression mode                         : Lossy
  42. Stream size                              : 1.41 GiB (13%)
  43. Language                                 : Korean
  44. Default                                  : Yes
  45. Forced                                   : No

  46. Text
  47. ID                                       : 3
  48. Format                                   : UTF-8
  49. Codec ID                                 : S_TEXT/UTF8
  50. Codec ID/Info                            : UTF-8 Plain Text
  51. Language                                 : English
  52. Default                                  : Yes
  53. Forced                                   : No

复制代码





游客,如果您要查看本帖隐藏内容请回复





回复

使用道具 举报

0

主题

0

好友

4830

积分

天王巨星

Rank: 4

UID
810406
主题
0
金钱
1739
高清币
904
鲜花
0
阅读权限
50
QQ
QQ
最后登录
2018-4-21
发表于 5 天前 |显示全部楼层
每天都来中国高清论坛看看有什么电影!
回复

使用道具 举报

0

主题

1

好友

4万

积分

永恒神话

Rank: 10Rank: 10Rank: 10

UID
82340
主题
0
金钱
12781
高清币
10720
鲜花
0
阅读权限
90
QQ
QQ
最后登录
2018-4-21
发表于 5 天前 |显示全部楼层
楼主分享的高清电影太好了!
回复

使用道具 举报

0

主题

0

好友

3257

积分

天王巨星

Rank: 4

UID
750506
主题
0
金钱
1511
高清币
308
鲜花
0
阅读权限
50
QQ
QQ
最后登录
2018-4-20
发表于 5 天前 |显示全部楼层
sssssssssssssss
回复

使用道具 举报

0

主题

3

好友

7603

积分

金鸡奖主角

Rank: 5Rank: 5

UID
240744
主题
0
金钱
4583
高清币
5
鲜花
0
阅读权限
70
QQ
QQ
最后登录
2018-4-20
发表于 5 天前 |显示全部楼层
每天都来中国高清论坛看看有什么电影!
回复

使用道具 举报

1

主题

0

好友

3633

积分

天王巨星

Rank: 4

UID
392784
主题
1
金钱
1680
高清币
367
鲜花
0
阅读权限
50
QQ
QQ
最后登录
2018-4-20
发表于 5 天前 |显示全部楼层
每天都来中国高清论坛看看有什么电影!
回复

使用道具 举报

0

主题

0

好友

1万

积分

好莱坞明星

Rank: 6Rank: 6

UID
89627
主题
0
金钱
5253
高清币
1758
鲜花
0
阅读权限
90
QQ
QQ
最后登录
2018-4-21
发表于 5 天前 |显示全部楼层
感谢楼主分享精彩电影!
回复

使用道具 举报

0

主题

4

好友

2万

积分

VIP贵宾

Rank: 7Rank: 7Rank: 7

UID
291185
主题
0
金钱
11967
高清币
2964
鲜花
0
阅读权限
100
QQ
QQ
最后登录
2018-4-20
发表于 5 天前 |显示全部楼层
感谢楼主分享精彩电影!
回复

使用道具 举报

0

主题

0

好友

60

积分

跑龙套

Rank: 1

UID
927094
主题
0
金钱
18
高清币
14
鲜花
0
阅读权限
10
QQ
QQ
最后登录
2018-4-17
发表于 5 天前 |显示全部楼层

萝莉福利资源,不看别后悔:
http://31eq.com/portal.php?x=68210
回复

使用道具 举报

2

主题

0

好友

7009

积分

金鸡奖主角

Rank: 5Rank: 5

UID
46187
主题
2
金钱
4030
高清币
40
鲜花
0
阅读权限
70
QQ
QQ
最后登录
2018-4-18
发表于 5 天前 |显示全部楼层
中国高清论坛很棒!
回复

使用道具 举报

期待您加入中国高清论坛QQ交流3群:101032372
 懒得打字嘛,点击右侧快捷回复【左侧自定义内容】  【右侧自定义内容】
您需要登录后才可以回帖 登录 | 立即注册

回顶部