请选择 进入手机版 | 继续访问电脑版

中国高清论坛

 找回密码
 立即注册
查看: 869|回复: 69

[动作片] 证人 The.Beast.Stalker.2008.1080p.BluRay.x264-aBD 7.95GB

  [复制链接]

1万

主题

0

好友

7万

积分

区域版主

Rank: 8Rank: 8

UID
13244
主题
13226
金钱
30856
高清币
13044
鲜花
-88
阅读权限
100
QQ
QQ
最后登录
2018-10-23
发表于 2018-4-16 19:47:10 |显示全部楼层


◎译  名 
证人
◎片  名 The Beast Stalker
◎年  代 2008
◎国  家 中国香港
◎类  别 动作/惊悚
◎语  言 普通话/粤语
◎字  幕 英文/简体中文/繁体中文
◎IMDB评分 6.1/10   52 votes
◎IMDB链接 http://www.imdb.com/title/tt1330525
◎文件格式 X264 + MP3
◎视频尺寸 640 x 352
◎文件大小 1CD 99 x 15MB
◎片  长 01:49:54
◎导  演 林超贤 Dante Lam
◎主  演 谢霆锋 Nicholas Tse  ....  Sergeant Tong
      张静初 Jingchu Zhang  ....  Ann Gao
      张家辉 Nick Cheung  ....  Hung
      钟舒漫 Sherman Chung  ....
      姜皓文 Philip Keung  ....  Ho-man Keung)
      关咏荷 Esther Kwan  ....  (voice)
      郭政鸿 Jing-hung Kwok  ....
      廖启智 Kai Chi Liu  ....
      苗圃 Pu Miao  ....
      黄雪妍 Suet-yin Wong  ....  Ling
      He Zhang  ....

◎简  介 



一宗车祸,彻底改变了他们的一生。



  沙展唐飞在追捕通缉犯张日东时,发生了严重车祸,之后更开枪误杀了一名小女孩。沉痛的他终日活在阴霾里;检控官高敏,亲眼目击大女儿被唐飞开枪打死,从此她的爱就只能寄放于小女儿丁玲身上。



  车祸后三个月,昏迷的张日东终于醒来,高敏第一时间要他踏入法庭受审。亡命之徒洪荆接其命令往活捉丁玲,碰巧给唐飞撞上,却未能及时把丁玲救回。高敏收到恐吓电话,要保女儿的命就得撤销对张日东控诉;一旦报警,定必撕票。唐飞誓要救回丁玲,以赎自己当日犯下的过失。



  唐飞在旧同僚新爷的协助下,逐步逐步迈向洪荆的贼窝。然而,最重要的线索却在高敏的手机内,高敏对他恨之入骨,绝不肯向他透露半句,唐飞在别无选择之下,唯有忍辱向昔日有争执的旧下属求助。



  高敏面对两难局面,不知如何是好,但她仍坚决拒绝唐飞的协助。为救女儿的性命,她决定不惜一切,偷走案情的关键文件。



  唐飞与新爷终追寻到洪荆,惜最后还是被洪荆逃去。唐飞把事情闹大,匪帮以为高敏报了警,向高敏声言要伤害丁玲以作警告。高敏得悉后,死命阻止唐飞继续调查,但唐飞却拿出有力证据,指丁玲应该就在咫尺之间... 如现在放弃找寻,丁玲可能不能活过当晚...



  就在此时,洪荆察觉唐飞三人已找到来,急忙之下,洪荆即带同丁玲匆忙离去,留下躺在家中,半身不遂的妻子阿丽。唐飞三人发现阿丽,要求与洪荆交换人质!



  然而洪荆不肯妥协,更施计从新爷手上抢回阿丽!唐飞凭着一点线索,追踪到洪荆,终救回丁玲;高敏得知丁玲获救,及时把证物提交堂上,张日东终被绳之于法。



  岂知洪荆死不放手,一直追杀过来,唐飞不敌,丁玲独自逃走之际,竟遇上意外,被活埋泥沙之下!唐飞追至,丁玲已奄奄一息...


幕后制作


  关于电影

  英皇电影荣誉呈献剧力万均的动作巨著 ──《证人》,是由《野兽刑警》及《千机变》的金像导演林超贤精心泡制,并由谢霆锋、张静初、张家辉等一众实力派演员倾力演出,全片斥资高达二千二百万港币拍摄,其中不乏超动感撞车场面。

  谢霆锋和张家辉二人在片中均有脱胎换骨的演出。《证人》中的谢霆锋粗犷刚烈,充满成熟男人味;张家辉则阴沉内敛、冷酷凶残。张静初继《门徒》的毒女之后,再次令观众眼前一亮,形象彻底转变。

  导演林超贤向来擅长驾驭动感大场面。《证人》一片结合了香港各区闹市街景及多场激烈的打斗,众演员亦拼死演出,其中包括男主角于旺角街头爬上七层高的大厦外墙等极其危险的动作;又于闹市街头追逐,因此于拍摄期间也曾引起不少哄动。面导演在刻划情感方面的功架比从前更深厚,令人为之动容。



  关于导演

  80年代末期开始为陈嘉上担任副导,从《逃学威龙》、《霹雳火》、《天地雄心》到与陈嘉上联合执导的《野兽刑警》,在第18届香港电影金像奖大上出风头,斩获最佳影片和最佳导演两项大奖。后来独立导演的《G4特工》、《江湖告急》、《重装警察》部部精彩,其中尤以《江湖告急》最受好评。

  2004年更凭着《千机变》而人气急升,当中的精彩武打动作场面以及创新剧情,令观众印象深刻。

  林超贤导演作品:《神枪手》(2008); 《至尊无赖》(2006); 《冲锋陷阵》(2004); 《恋情告急》(2004); 《千机变》(2003); 《豪情》(2003); 《恋爱行星》(2002); 《重装警察》(2001)    《走投有路》(2001); 《江湖告急》(2000); 《天旋地恋》(1999); 《野兽刑警》(1998); 《G4特工》(1997)

花絮

·电影《证人》为求真实感,花了两天时间于北角人烟最稠密的电气道及街市拍摄,并花费三十万动用过百支气枪作道具,期间除了搞翻街市内近三十个档摊之外,更惹起过百途人大恐慌,入黑后更出动武装警察部队,令途人误以为有大事发生而报警。
  1. Video
  2. ID                                       : 1
  3. Format                                   : AVC
  4. Format/Info                              : Advanced Video Codec
  5. Format profile                           : High@L4.1
  6. Format settings                          : CABAC / 4 Ref Frames
  7. Format settings, CABAC                   : Yes
  8. Format settings, ReFrames                : 4 frames
  9. Codec ID                                 : V_MPEG4/ISO/AVC
  10. Duration                                 : 1 h 50 min
  11. Bit rate                                 : 9 693 kb/s
  12. Width                                    : 1 920 pixels
  13. Height                                   : 1 080 pixels
  14. Display aspect ratio                     : 16:9
  15. Frame rate mode                          : Constant
  16. Frame rate                               : 24.000 FPS
  17. Color space                              : YUV
  18. Chroma subsampling                       : 4:2:0
  19. Bit depth                                : 8 bits
  20. Scan type                                : Progressive
  21. Bits/(Pixel*Frame)                       : 0.195
  22. Stream size                              : 7.30 GiB (92%)
  23. Writing library                          : x264 core 67 r1134M b8808bf
  24. Encoding settings                        : cabac=1 / ref=4 / deblock=1:-1:-1 / analyse=0x3:0x113 / me=umh / subme=7 / psy_rd=1.0:0.0 / mixed_ref=1 / me_range=16 / chroma_me=1 / trellis=2 / 8x8dct=1 / cqm=0 / deadzone=21,11 / chroma_qp_offset=-2 / threads=6 / nr=0 / decimate=1 / mbaff=0 / bframes=3 / b_pyramid=0 / b_adapt=2 / b_bias=0 / direct=3 / wpredb=1 / keyint=250 / keyint_min=25 / scenecut=40 / rc=2pass / bitrate=9693 / ratetol=1.0 / qcomp=0.60 / qpmin=10 / qpmax=51 / qpstep=4 / cplxblur=20.0 / qblur=0.5 / vbv_maxrate=50000 / vbv_bufsize=50000 / ip_ratio=1.40 / pb_ratio=1.30 / aq=1:1.00
  25. Language                                 : Chinese
  26. Default                                  : Yes
  27. Forced                                   : No

  28. Audio
  29. ID                                       : 2
  30. Format                                   : AC-3
  31. Format/Info                              : Audio Coding 3
  32. Codec ID                                 : A_AC3
  33. Duration                                 : 1 h 50 min
  34. Bit rate mode                            : Constant
  35. Bit rate                                 : 640 kb/s
  36. Channel(s)                               : 6 channels
  37. Channel positions                        : Front: L C R, Side: L R, LFE
  38. Sampling rate                            : 48.0 kHz
  39. Frame rate                               : 31.250 FPS (1536 SPF)
  40. Bit depth                                : 16 bits
  41. Compression mode                         : Lossy
  42. Stream size                              : 504 MiB (6%)
  43. Language                                 : Chinese
  44. Service kind                             : Complete Main
  45. Default                                  : Yes
  46. Forced                                   : No

  47. Text
  48. ID                                       : 3
  49. Format                                   : UTF-8
  50. Codec ID                                 : S_TEXT/UTF8
  51. Codec ID/Info                            : UTF-8 Plain Text
  52. Language                                 : English
  53. Default                                  : Yes
  54. Forced                                   : No



复制代码
游客,如果您要查看本帖隐藏内容请回复,如不想回复请点击赞助VIP贵宾:https://item.taobao.com/item.htm?id=540849877691
回复

使用道具 举报

0

主题

1

好友

7万

积分

永恒神话

Rank: 10Rank: 10Rank: 10

UID
82340
主题
0
金钱
21340
高清币
18027
鲜花
0
阅读权限
90
QQ
QQ
最后登录
2018-10-23
发表于 2018-4-16 19:49:04 |显示全部楼层
楼主分享的高清电影太好了!

点评

btwfb914  各类少女视频 少女套图 查看网址: uai15.com 或 百度搜索“少女地带”  发表于 2018-5-19 04:07
回复

使用道具 举报

0

主题

0

好友

1795

积分

人气偶像

Rank: 3Rank: 3

UID
922577
主题
0
金钱
615
高清币
329
鲜花
0
阅读权限
30
QQ
QQ
最后登录
2018-8-19
发表于 2018-4-16 19:56:32 |显示全部楼层
哈哈~` 好久没有笑喽~
回复

使用道具 举报

0

主题

0

好友

60

积分

跑龙套

Rank: 1

UID
927094
主题
0
金钱
18
高清币
14
鲜花
0
阅读权限
10
QQ
QQ
最后登录
2018-4-17
发表于 2018-4-16 20:05:57 |显示全部楼层

萝莉福利资源,不看别后悔:
http://31eq.com/portal.php?x=68210
回复

使用道具 举报

0

主题

0

好友

2万

积分

superstar

Rank: 9Rank: 9Rank: 9

UID
32426
主题
0
金钱
16598
高清币
2324
鲜花
0
阅读权限
90
QQ
QQ
最后登录
2018-10-22
发表于 2018-4-16 20:09:14 |显示全部楼层
感谢楼主分享精彩电影!
回复

使用道具 举报

0

主题

0

好友

2733

积分

人气偶像

Rank: 3Rank: 3

UID
914670
主题
0
金钱
1291
高清币
271
鲜花
0
阅读权限
30
QQ
QQ
最后登录
2018-10-21
发表于 2018-4-16 20:09:36 |显示全部楼层
每天都来中国高清论坛看看有什么电影!
回复

使用道具 举报

0

主题

0

好友

618

积分

知名艺人

Rank: 2

UID
920304
主题
0
金钱
383
高清币
1
鲜花
0
阅读权限
20
QQ
QQ
最后登录
2018-10-22
发表于 2018-4-16 20:15:53 |显示全部楼层
回复

使用道具 举报

0

主题

8

好友

2006

积分

人气偶像

Rank: 3Rank: 3

UID
38077
主题
0
金钱
1236
高清币
1
鲜花
0
阅读权限
30
QQ
QQ
最后登录
2018-10-20
发表于 2018-4-16 20:29:52 |显示全部楼层
感谢楼主分享精彩影片
回复

使用道具 举报

0

主题

0

好友

621

积分

知名艺人

Rank: 2

UID
877870
主题
0
金钱
420
高清币
0
鲜花
0
阅读权限
20
QQ
QQ
最后登录
2018-10-19
发表于 2018-4-16 20:32:42 |显示全部楼层
谢霆锋的影帝之作,好
回复

使用道具 举报

0

主题

0

好友

3772

积分

天王巨星

Rank: 4

UID
826675
主题
0
金钱
2184
高清币
52
鲜花
0
阅读权限
50
QQ
QQ
最后登录
2018-10-21
发表于 2018-4-16 20:52:42 |显示全部楼层
楼主分享的高清电影太好了!
回复

使用道具 举报

期待您加入中国高清论坛QQ交流6群:20818254
 懒得打字嘛,点击右侧快捷回复【左侧自定义内容】  【右侧自定义内容】
您需要登录后才可以回帖 登录 | 立即注册

回顶部