请选择 进入手机版 | 继续访问电脑版

中国高清论坛

 找回密码
 立即注册
查看: 2324|回复: 262

[喜剧片] 闺蜜2/闺蜜2:无二不作/闺蜜2:单挑越南黑帮[国语内封简繁中字] Girls.vs.Gangsters.2018.CHINESE.720p.BluRay.x264-WiKi 4.37GB

  [复制链接]

1万

主题

0

好友

163万

积分

超级版主

太空怪人

Rank: 8Rank: 8

UID
610038
主题
11752
金钱
26510
高清币
799848
鲜花
2
阅读权限
150
QQ
QQ
最后登录
2018-10-19
发表于 2018-5-7 16:53:56 |显示全部楼层
本帖最后由 ccbby 于 2018-5-7 16:58 编辑



◎译  名 闺蜜2/闺蜜2:无二不作/闺蜜2:单挑越南黑帮
◎片  名 閨蜜2之單挑越南黑幫
◎年  代 2018
◎产  地 香港/中国大陆
◎类  别 剧情/喜剧
◎语  言 汉语普通话
◎上映日期 2018-03-02(中国大陆)
◎IMDb评分  3.7/10 from 29 users
◎IMDb链接  http://www.imdb.com/title/tt7870578/
◎豆瓣评分 2.8/10 from 6,376 users
◎豆瓣链接 https://movie.douban.com/subject/25856453/
◎片  长 109分钟
◎导  演 黄真真 Chun-Chun Wong
◎主  演 薛凯琪 Fiona Sit
陈意涵 Ivy Chen
张钧甯 Chun-Ning Chang
迈克·泰森 Mike Tyson
王水林 Shuilin Wang
陈宝山 Bao Son Tran
阮金红 Elly Tran Ha
范湉湉 Tiantian Fan
◎简  介
《闺蜜2:无二不作》讲述了陈意涵、薛凯琪、张钧甯闺蜜团空降越南,开启了一场婚前失控单身之旅。
  1. Video
  2. ID                                       : 1
  3. Format                                   : AVC
  4. Format/Info                              : Advanced Video Codec
  5. Format profile                           : High@L4.1
  6. Format settings                          : CABAC / 12 Ref Frames
  7. Format settings, CABAC                   : Yes
  8. Format settings, ReFrames                : 12 frames
  9. Codec ID                                 : V_MPEG4/ISO/AVC
  10. Duration                                 : 1 h 53 min
  11. Bit rate                                 : 4 871 kb/s
  12. Width                                    : 1 280 pixels
  13. Height                                   : 536 pixels
  14. Display aspect ratio                     : 2.40:1
  15. Frame rate mode                          : Constant
  16. Frame rate                               : 24.000 FPS
  17. Color space                              : YUV
  18. Chroma subsampling                       : 4:2:0
  19. Bit depth                                : 8 bits
  20. Scan type                                : Progressive
  21. Bits/(Pixel*Frame)                       : 0.296
  22. Stream size                              : 3.86 GiB (88%)
  23. Writing library                          : x264 core 129 r2245 bc13772
  24. Encoding settings                        : cabac=1 / ref=12 / deblock=1:-3:-3 / analyse=0x3:0x133 / me=umh / subme=11 / psy=1 / psy_rd=1.05:0.05 / mixed_ref=1 / me_range=32 / chroma_me=1 / trellis=2 / 8x8dct=1 / cqm=0 / deadzone=21,11 / fast_pskip=0 / chroma_qp_offset=-3 / threads=6 / lookahead_threads=1 / sliced_threads=0 / nr=0 / decimate=1 / interlaced=0 / bluray_compat=0 / constrained_intra=0 / bframes=8 / b_pyramid=2 / b_adapt=2 / b_bias=0 / direct=3 / weightb=1 / open_gop=0 / weightp=2 / keyint=250 / keyint_min=24 / scenecut=40 / intra_refresh=0 / rc_lookahead=60 / rc=2pass / mbtree=1 / bitrate=4871 / ratetol=1.0 / qcomp=0.60 / qpmin=0 / qpmax=69 / qpstep=4 / cplxblur=20.0 / qblur=0.5 / ip_ratio=1.40 / aq=1:0.65
  25. Language                                 : English
  26. Default                                  : Yes
  27. Forced                                   : No

  28. Audio
  29. ID                                       : 2
  30. Format                                   : AC-3
  31. Format/Info                              : Audio Coding 3
  32. Codec ID                                 : A_AC3
  33. Duration                                 : 1 h 53 min
  34. Bit rate mode                            : Constant
  35. Bit rate                                 : 640 kb/s
  36. Channel(s)                               : 6 channels
  37. Channel positions                        : Front: L C R, Side: L R, LFE
  38. Sampling rate                            : 48.0 kHz
  39. Frame rate                               : 31.250 FPS (1536 SPF)
  40. Bit depth                                : 16 bits
  41. Compression mode                         : Lossy
  42. Stream size                              : 520 MiB (12%)
  43. Language                                 : Chinese
  44. Service kind                             : Complete Main
  45. Default                                  : Yes
  46. Forced                                   : No

  47. Text #1
  48. ID                                       : 3
  49. Format                                   : UTF-8
  50. Codec ID                                 : S_TEXT/UTF8
  51. Codec ID/Info                            : UTF-8 Plain Text
  52. Duration                                 : 1 h 51 min
  53. Bit rate                                 : 46 b/s
  54. Count of elements                        : 1783
  55. Stream size                              : 38.2 KiB (0%)
  56. Title                                    : 简体
  57. Language                                 : Chinese
  58. Default                                  : Yes
  59. Forced                                   : No

  60. Text #2
  61. ID                                       : 4
  62. Format                                   : UTF-8
  63. Codec ID                                 : S_TEXT/UTF8
  64. Codec ID/Info                            : UTF-8 Plain Text
  65. Duration                                 : 1 h 51 min
  66. Bit rate                                 : 46 b/s
  67. Count of elements                        : 1783
  68. Stream size                              : 38.2 KiB (0%)
  69. Title                                    : 繁体
  70. Language                                 : Chinese
  71. Default                                  : No
  72. Forced                                   : No

复制代码





游客,如果您要查看本帖隐藏内容请回复,如不想回复请点击赞助VIP贵宾:https://item.taobao.com/item.htm?id=540849877691

回复

使用道具 举报

2

主题

7

好友

1万

积分

超级明星

Rank: 7Rank: 7Rank: 7

UID
226961
主题
2
金钱
7094
高清币
260
鲜花
0
阅读权限
90
QQ
QQ
最后登录
2018-10-18
发表于 2018-5-7 17:01:16 |显示全部楼层
感谢楼主分享精彩电影!
回复

使用道具 举报

0

主题

0

好友

4885

积分

天王巨星

Rank: 4

UID
918563
主题
0
金钱
1922
高清币
1037
鲜花
0
阅读权限
50
QQ
QQ
最后登录
2018-10-17
发表于 2018-5-7 17:03:50 |显示全部楼层
每天都来中国高清论坛看看有什么电影!
回复

使用道具 举报

0

主题

0

好友

4万

积分

永恒神话

Rank: 10Rank: 10Rank: 10

UID
482684
主题
0
金钱
12531
高清币
8740
鲜花
0
阅读权限
90
QQ
QQ
最后登录
2018-10-18
发表于 2018-5-7 17:06:19 |显示全部楼层
感谢楼主分享
回复

使用道具 举报

0

主题

2

好友

7843

积分

金鸡奖主角

Rank: 5Rank: 5

UID
183492
主题
0
金钱
4023
高清币
1342
鲜花
0
阅读权限
70
QQ
QQ
最后登录
2018-10-15
发表于 2018-5-7 17:14:23 |显示全部楼层
我看不错噢 谢谢楼主!
回复

使用道具 举报

0

主题

0

好友

4666

积分

天王巨星

Rank: 4

UID
358303
主题
0
金钱
3334
高清币
204
鲜花
0
阅读权限
50
QQ
QQ
最后登录
2018-10-18
发表于 2018-5-7 17:14:53 |显示全部楼层
既然你诚信诚意的推荐了,那我就勉为其难的看看吧!
回复

使用道具 举报

0

主题

8

好友

1万

积分

好莱坞明星

Rank: 6Rank: 6

UID
96270
主题
0
金钱
6019
高清币
859
鲜花
0
阅读权限
90
QQ
QQ
最后登录
2018-10-18
发表于 2018-5-7 17:16:23 |显示全部楼层
感谢楼主的无私分享!
回复

使用道具 举报

2

主题

0

好友

5082

积分

金鸡奖主角

Rank: 5Rank: 5

UID
310991
主题
2
金钱
2516
高清币
553
鲜花
0
阅读权限
70
QQ
QQ
最后登录
2018-10-18
发表于 2018-5-7 17:17:14 |显示全部楼层
感谢分享,谢谢!!!
回复

使用道具 举报

0

主题

0

好友

2103

积分

人气偶像

Rank: 3Rank: 3

UID
745734
主题
0
金钱
1221
高清币
103
鲜花
0
阅读权限
30
QQ
QQ
最后登录
2018-10-16
发表于 2018-5-7 17:17:28 |显示全部楼层
每天都来中国高清论坛看看有什么电影!
回复

使用道具 举报

0

主题

0

好友

9841

积分

金鸡奖主角

Rank: 5Rank: 5

UID
811706
主题
0
金钱
3984
高清币
1885
鲜花
0
阅读权限
70
QQ
QQ
最后登录
2018-10-18
发表于 2018-5-7 17:18:53 |显示全部楼层
每天都来中国高清论坛看看有什么电影!
回复

使用道具 举报

期待您加入中国高清论坛QQ交流6群:20818254
 懒得打字嘛,点击右侧快捷回复【左侧自定义内容】  【右侧自定义内容】
您需要登录后才可以回帖 登录 | 立即注册

回顶部