请选择 进入手机版 | 继续访问电脑版

中国高清论坛

 找回密码
 立即注册
查看: 4764|回复: 1545

[剧情片] 我朋友的妈妈 [内嵌繁简中文字幕] My Friend's Mom.2016.KR.WEB-DL.1920x1080p.x264.AAC-KOOK 2.99 GiB

  [复制链接]

1万

主题

0

好友

6万

积分

区域版主

Rank: 8Rank: 8

UID
13244
主题
11512
金钱
27115
高清币
11337
鲜花
-89
阅读权限
100
QQ
QQ
最后登录
2018-5-27
发表于 2018-5-10 20:01:41 |显示全部楼层
本帖最后由 jinggangshi 于 2018-5-10 20:28 编辑



◎译  名 我朋友的妈妈
◎片  名 My Friend's Mom
◎年  代 2016
◎国  家 韩国
◎类  别 剧情/情色
◎语  言 韩语
◎字  幕 简体中文/繁体中文
◎IMDb评分 N/A
◎IMDB链接 N/A
◎文件格式 x264 + AAC
◎视频尺寸 1920x1080
◎文件大小 2.99 GiB
◎片  长 1 h 18 min
◎导  演 北野武 Takeshi Kitano
◎主  演 李恩美
姜艺娜




◎简  介


    英才是个全能天才,也是个处 男,新搬家第一天晚上就被姐姐的啪啪声搅得浴 火 焚 身。他一人去姐姐别墅住,姐姐的朋友突然闯入,邀请去她家,并勾 引了他。小伙起初还奋力反抗并跑回房间,然而阿姨曼 妙的身姿整夜在他脑海重现。第二天早上再遇到阿姨时小伙再也控制不住了,两人从沙发到地板到车上到床上再到楼梯上没日没夜的啪 啪 啪。一日,两人啪 啪完毕,情侣般倚在一起看电影。这时候阿姨的女儿出现了,两个年轻人一见钟情。次日,小伙子就带着小姑娘去玩耍,接着是开房啪 啪 啪。阿姨知道后很愤怒,大骂小伙负心薄幸,不幸这一幕被小姑娘听到了,于是...
  1. General
  2. Unique ID                      : 212300769715146809234432752119987703148 (0x9FB7A41606966785897AB78A36B20D6C)

  3. Format                         : Matroska
  4. Format version                 : Version 4 / Version 2
  5. File size                      : 2.99 GiB
  6. Duration                       : 1 h 18 min
  7. Overall bit rate mode          : Variable
  8. Overall bit rate               : 5 454 kb/s
  9. Movie name                     : KOOK
  10. Encoded date                   : UTC 2018-04-30 16:32:32
  11. Writing application            : mkvmerge v9.4.2 ('So High') 64bit
  12. Writing library                : libebml v1.3.4 + libmatroska v1.4.5
  13. Attachments                    : 正式海报.jpg / fzlbjw.ttf / fzlbfw.ttf

  14. Video
  15. ID                             : 1
  16. Format                         : AVC
  17. Format/Info                    : Advanced Video Codec
  18. Format profile                 : High@L4.1
  19. Format settings, CABAC         : Yes
  20. Format settings, ReFrames      : 3 frames
  21. Codec ID                       : V_MPEG4/ISO/AVC
  22. Duration                       : 1 h 18 min
  23. Bit rate mode                  : Variable
  24. Bit rate                       : 5 120 kb/s
  25. Maximum bit rate               : 35.8 Mb/s
  26. Width                          : 1 920 pixels
  27. Height                         : 1 080 pixels
  28. Display aspect ratio           : 16:9
  29. Frame rate mode                : Constant
  30. Frame rate                     : 29.970 (30000/1001) FPS
  31. Color space                    : YUV
  32. Chroma subsampling             : 4:2:0
  33. Bit depth                      : 8 bits
  34. Scan type                      : Progressive
  35. Bits/(Pixel*Frame)             : 0.082
  36. Stream size                    : 2.80 GiB (94%)
  37. Writing library                : x264 core 142
  38. Encoding settings              : cabac=1 / ref=3 / deblock=1:0:0 / analyse=0x3:0x113 / me=umh / subme=8 / psy=1 / psy_rd=1.00:0.00 / mixed_ref=1 / me_range=16 / chroma_me=1 / trellis=1 / 8x8dct=1 / cqm=0 / deadzone=21,11 / fast_pskip=1 / chroma_qp_offset=-2 / threads=16 / lookahead_threads=2 / sliced_threads=0 / nr=0 / decimate=1 / interlaced=0 / bluray_compat=0 / constrained_intra=0 / bframes=1 / b_pyramid=0 / b_adapt=2 / b_bias=0 / direct=3 / weightb=1 / open_gop=0 / weightp=2 / keyint=250 / keyint_min=25 / scenecut=40 / intra_refresh=0 / rc_lookahead=50 / rc=2pass / mbtree=1 / bitrate=5120 / ratetol=1.0 / qcomp=0.60 / qpmin=0 / qpmax=69 / qpstep=4 / cplxblur=20.0 / qblur=0.5 / vbv_maxrate=35840 / vbv_bufsize=35840 / nal_hrd=vbr / filler=0 / ip_ratio=1.40 / aq=1:1.00
  39. Default                        : Yes
  40. Forced                         : No

  41. Audio
  42. ID                             : 2
  43. Format                         : AAC
  44. Format/Info                    : Advanced Audio Codec
  45. Format profile                 : LC
  46. Codec ID                       : A_AAC
  47. Duration                       : 1 h 18 min
  48. Bit rate                       : 320 kb/s
  49. Channel(s)                     : 2 channels
  50. Channel positions              : Front: L R
  51. Sampling rate                  : 48.0 kHz
  52. Frame rate                     : 46.875 FPS (1024 spf)
  53. Compression mode               : Lossy
  54. Delay relative to video        : -75 ms
  55. Stream size                    : 180 MiB (6%)
  56. Default                        : Yes
  57. Forced                         : No

  58. Text #1
  59. ID                             : 3
  60. Format                         : ASS
  61. Codec ID                       : S_TEXT/ASS
  62. Codec ID/Info                  : Advanced Sub Station Alpha
  63. Duration                       : 1 h 16 min
  64. Bit rate                       : 91 b/s
  65. Count of elements              : 884
  66. Compression mode               : Lossless
  67. Stream size                    : 51.6 KiB (0%)
  68. Title                          : 简体字幕
  69. Language                       : Chinese
  70. Default                        : Yes
  71. Forced                         : No

  72. Text #2
  73. ID                             : 4
  74. Format                         : ASS
  75. Codec ID                       : S_TEXT/ASS
  76. Codec ID/Info                  : Advanced Sub Station Alpha
  77. Duration                       : 1 h 16 min
  78. Bit rate                       : 91 b/s
  79. Count of elements              : 884
  80. Compression mode               : Lossless
  81. Stream size                    : 51.6 KiB (0%)
  82. Title                          : 繁体字幕
  83. Language                       : Chinese
  84. Default                        : No
  85. Forced                         : No

复制代码
游客,如果您要查看本帖隐藏内容请回复

回复

使用道具 举报

0

主题

0

好友

5347

积分

金鸡奖主角

Rank: 5Rank: 5

UID
809678
主题
0
金钱
2144
高清币
758
鲜花
0
阅读权限
70
QQ
QQ
最后登录
2018-5-26
发表于 2018-5-10 20:05:38 |显示全部楼层
既然你诚信诚意的推荐了,那我就勉为其难的看看吧!
回复

使用道具 举报

1

主题

0

好友

6230

积分

金鸡奖主角

Rank: 5Rank: 5

UID
312489
主题
1
金钱
3779
高清币
0
鲜花
0
阅读权限
70
QQ
QQ
最后登录
2018-5-26
发表于 2018-5-10 20:06:06 |显示全部楼层
非常感谢楼主的分享
回复

使用道具 举报

0

主题

0

好友

1888

积分

人气偶像

Rank: 3Rank: 3

UID
279960
主题
0
金钱
1133
高清币
109
鲜花
0
阅读权限
30
QQ
QQ
最后登录
2018-5-26
发表于 2018-5-10 20:07:46 |显示全部楼层
感谢楼主分享精彩电影!
回复

使用道具 举报

0

主题

0

好友

3262

积分

天王巨星

Rank: 4

UID
384094
主题
0
金钱
1998
高清币
17
鲜花
0
阅读权限
50
QQ
QQ
最后登录
2018-5-26
发表于 2018-5-10 20:08:37 |显示全部楼层
中国高清论坛很棒!
回复

使用道具 举报

0

主题

0

好友

963

积分

知名艺人

Rank: 2

UID
866404
主题
0
金钱
704
高清币
1
鲜花
0
阅读权限
20
QQ
QQ
最后登录
2018-5-26
发表于 2018-5-10 20:08:38 |显示全部楼层
谢谢分享。。。。。。。。。。。。
回复

使用道具 举报

0

主题

0

好友

4129

积分

天王巨星

Rank: 4

UID
589985
主题
0
金钱
2279
高清币
7
鲜花
0
阅读权限
50
QQ
QQ
最后登录
2018-5-25
发表于 2018-5-10 20:09:46 |显示全部楼层
顶顶顶顶顶顶顶顶顶顶顶顶顶顶顶顶顶顶顶顶顶顶顶顶顶顶
回复

使用道具 举报

0

主题

0

好友

4395

积分

天王巨星

Rank: 4

UID
104968
主题
0
金钱
2716
高清币
121
鲜花
0
阅读权限
50
QQ
QQ
最后登录
2018-5-26
发表于 2018-5-10 20:09:57 |显示全部楼层
感谢楼主分享精彩电影!
回复

使用道具 举报

0

主题

0

好友

2万

积分

superstar

Rank: 9Rank: 9Rank: 9

UID
249260
主题
0
金钱
14900
高清币
1211
鲜花
0
阅读权限
90
QQ
QQ
最后登录
2018-5-27
发表于 2018-5-10 20:10:16 |显示全部楼层
每天都来中国高清论坛看看有什么电影!
回复

使用道具 举报

0

主题

0

好友

7482

积分

金鸡奖主角

Rank: 5Rank: 5

UID
390512
主题
0
金钱
4449
高清币
207
鲜花
0
阅读权限
70
QQ
QQ
最后登录
2018-5-26
发表于 2018-5-10 20:14:27 |显示全部楼层
中国高清论坛很棒!
回复

使用道具 举报

期待您加入中国高清论坛QQ交流3群:101032372
 懒得打字嘛,点击右侧快捷回复【左侧自定义内容】  【右侧自定义内容】
您需要登录后才可以回帖 登录 | 立即注册

回顶部