请选择 进入手机版 | 继续访问电脑版

中国高清论坛

 找回密码
 立即注册
查看: 4063|回复: 859

[奇幻片] 西游记·女儿国/西游记之女儿国[国语中字]T The.Monkey.King.III.Kingdom.of.Women.2018.1080p.BluRay.x264.DTS-HDC 13.95GB

  [复制链接]

1万

主题

0

好友

163万

积分

超级版主

太空怪人

Rank: 8Rank: 8

UID
610038
主题
11752
金钱
26510
高清币
799848
鲜花
2
阅读权限
150
QQ
QQ
最后登录
2018-10-19
发表于 2018-5-13 15:21:34 |显示全部楼层
本帖最后由 ccbby 于 2018-5-19 19:40 编辑



◎译  名 西游记·女儿国/西游记之女儿国
◎片  名 西游记女儿国
◎年  代 2018
◎产  地 中国大陆/香港
◎类  别 喜剧/爱情/奇幻
◎语  言 汉语普通话
◎上映日期 2018-02-16(中国大陆)
◎IMDb评分  5.6/10 from 204 users
◎豆瓣评分 4.7/10 from 51,271 users
◎片  长 116分钟
◎导  演 郑保瑞 Pou-Soi Cheang
◎主  演 郭富城 Aaron Kwok
      冯绍峰 Shaofeng Feng
      赵丽颖 Liying Zhao
      小沈阳 Xiao Shen-Yang
      罗仲谦 Chung Him Law
      林志玲 Chiling Lin
      梁咏琪 Gigi Leung
      刘涛 Tao Liu
      孙伊涵 Yihan Sun
      苑琼丹 King-Tan Yuen
      潘斌龙 Bin-long Pan
      陈雅丽 Allie Chan
      施诗 Shi Shi

◎简  介

  唐僧师徒途经忘川河,因激怒河神而误入西梁女界。闯入其中,众人才发现这个国家只有女性,并且建国以来此地就没来过男性。而且国中立有祖训,将男人视为天敌。典籍中更有预言,指明有朝一日,会有东土而来的僧人带着一只猴子、一头猪和一个小蓝人闯入其中。他们到来之日,便是女儿国走向毁灭之时。
  1. Video
  2. ID                                       : 1
  3. Format                                   : AVC
  4. Format/Info                              : Advanced Video Codec
  5. Format profile                           : High@L4.1
  6. Format settings                          : CABAC / 5 Ref Frames
  7. Format settings, CABAC                   : Yes
  8. Format settings, ReFrames                : 5 frames
  9. Codec ID                                 : V_MPEG4/ISO/AVC
  10. Duration                                 : 1 h 54 min
  11. Bit rate                                 : 16.0 Mb/s
  12. Width                                    : 1 920 pixels
  13. Height                                   : 1 040 pixels
  14. Display aspect ratio                     : 1.85:1
  15. Frame rate mode                          : Constant
  16. Frame rate                               : 24.000 FPS
  17. Color space                              : YUV
  18. Chroma subsampling                       : 4:2:0
  19. Bit depth                                : 8 bits
  20. Scan type                                : Progressive
  21. Bits/(Pixel*Frame)                       : 0.334
  22. Stream size                              : 12.7 GiB (91%)
  23. Title                                    : The.Monkey.King.III.Kingdom.of.Women.2018.1080p.BluRay.x264.DTS-HDC
  24. Writing library                          : x264 core 142 r2431+42 c69a006 tMod [8-bit@all X86_64]
  25. Encoding settings                        : cabac=1 / ref=5 / deblock=1:-2:-2 / analyse=0x3:0x133 / me=umh / subme=11 / psy=1 / fade_compensate=0.00 / psy_rd=1.10:0.00 / mixed_ref=1 / me_range=64 / chroma_me=1 / trellis=2 / 8x8dct=1 / cqm=0 / deadzone=21,11 / fast_pskip=0 / chroma_qp_offset=-2 / threads=84 / lookahead_threads=7 / sliced_threads=0 / nr=0 / decimate=0 / interlaced=0 / bluray_compat=0 / constrained_intra=0 / fgo=0 / bframes=10 / b_pyramid=2 / b_adapt=2 / b_bias=0 / direct=3 / weightb=1 / open_gop=0 / weightp=2 / keyint=240 / keyint_min=24 / scenecut=40 / intra_refresh=0 / rc_lookahead=40 / rc=2pass / mbtree=0 / bitrate=16000 / ratetol=1.0 / qcomp=0.70 / qpmin=0:0:0 / qpmax=69:69:69 / qpstep=4 / cplxblur=20.0 / qblur=0.5 / vbv_maxrate=50000 / vbv_bufsize=45000 / nal_hrd=none / filler=0 / ip_ratio=1.10 / pb_ratio=1.15 / aq=3:0.95 / aq-sensitivity=10.00 / aq-factor=1.00:1.00:1.00 / aq2=0 / aq3=0
  26. Language                                 : Chinese
  27. Default                                  : Yes
  28. Forced                                   : No

  29. Audio
  30. ID                                       : 2
  31. Format                                   : DTS
  32. Format/Info                              : Digital Theater Systems
  33. Codec ID                                 : A_DTS
  34. Duration                                 : 1 h 54 min
  35. Bit rate mode                            : Constant
  36. Bit rate                                 : 1 509 kb/s
  37. Channel(s)                               : 6 channels
  38. Channel positions                        : Front: L C R, Side: L R, LFE
  39. Sampling rate                            : 48.0 kHz
  40. Frame rate                               : 93.750 FPS (512 SPF)
  41. Bit depth                                : 24 bits
  42. Compression mode                         : Lossy
  43. Stream size                              : 1.20 GiB (9%)
  44. Title                                    : The.Monkey.King.III.Kingdom.of.Women.2018.1080p.BluRay.x264.DTS-HDC
  45. Language                                 : Chinese
  46. Default                                  : Yes
  47. Forced                                   : No

  48. Text
  49. ID                                       : 3
  50. Format                                   : PGS
  51. Muxing mode                              : zlib
  52. Codec ID                                 : S_HDMV/PGS
  53. Codec ID/Info                            : Picture based subtitle format used on BDs/HD-DVDs
  54. Duration                                 : 1 h 48 min
  55. Bit rate                                 : 15.5 kb/s
  56. Count of elements                        : 2363
  57. Stream size                              : 12.0 MiB (0%)
  58. Language                                 : Chinese
  59. Default                                  : Yes
  60. Forced                                   : No

  61. Menu
  62. 00:00:00.000                             : en:00:00:00.000
  63. 00:09:26.042                             : en:00:09:26.042
  64. 00:21:21.500                             : en:00:21:21.500
  65. 00:31:10.917                             : en:00:31:10.917
  66. 00:39:21.000                             : en:00:39:21.000
  67. 00:52:59.542                             : en:00:52:59.542
  68. 01:01:58.875                             : en:01:01:58.875
  69. 01:09:56.292                             : en:01:09:56.292
  70. 01:21:42.167                             : en:01:21:42.167
  71. 01:29:18.375                             : en:01:29:18.375
  72. 01:42:01.042                             : en:01:42:01.042
  73. 01:47:01.375                             : en:01:47:01.375
复制代码





[漫威宇宙/18部合集][HEVC][1080P][国英双语][特效中英双字][原盘压制][电影烧包][98.4G]
游客,如果您要查看本帖隐藏内容请回复,如不想回复请点击赞助VIP贵宾:https://item.taobao.com/item.htm?id=540849877691

回复

使用道具 举报

0

主题

0

好友

2万

积分

superstar

Rank: 9Rank: 9Rank: 9

UID
372248
主题
0
金钱
11991
高清币
5055
鲜花
0
阅读权限
90
QQ
QQ
最后登录
2018-10-18
发表于 2018-5-13 15:22:52 |显示全部楼层
每天都来中国高清论坛看看有什么电影!
回复

使用道具 举报

0

主题

0

好友

1万

积分

影坛巨星

Rank: 8Rank: 8

UID
925568
主题
0
金钱
5914
高清币
4034
鲜花
0
阅读权限
90
QQ
QQ
最后登录
2018-8-13
发表于 2018-5-13 15:23:51 |显示全部楼层
中国高清论坛很棒!
回复

使用道具 举报

0

主题

0

好友

1万

积分

超级明星

Rank: 7Rank: 7Rank: 7

UID
334447
主题
0
金钱
5779
高清币
1230
鲜花
0
阅读权限
90
QQ
QQ
最后登录
2018-10-18
发表于 2018-5-13 15:24:43 手机频道 |显示全部楼层
中国高清论坛很棒!
回复

使用道具 举报

0

主题

0

好友

1万

积分

影坛巨星

Rank: 8Rank: 8

UID
183123
主题
0
金钱
9571
高清币
61
鲜花
0
阅读权限
90
QQ
QQ
最后登录
2018-10-18
发表于 2018-5-13 15:25:22 |显示全部楼层
每天都来中国高清论坛看看有什么电影!
回复

使用道具 举报

0

主题

6

好友

1万

积分

影坛巨星

Rank: 8Rank: 8

UID
152406
主题
0
金钱
8656
高清币
1363
鲜花
0
阅读权限
90
QQ
QQ
最后登录
2018-10-18
发表于 2018-5-13 15:26:12 |显示全部楼层
感谢楼主的无私分享!
回复

使用道具 举报

7

主题

0

好友

6315

积分

金鸡奖主角

Rank: 5Rank: 5

UID
514590
主题
7
金钱
4013
高清币
8
鲜花
0
阅读权限
70
QQ
QQ
最后登录
2018-10-18
发表于 2018-5-13 15:26:20 |显示全部楼层
感谢楼主分享精彩电影!
回复

使用道具 举报

0

主题

0

好友

9171

积分

金鸡奖主角

Rank: 5Rank: 5

UID
693589
主题
0
金钱
4489
高清币
1127
鲜花
0
阅读权限
70
QQ
QQ
最后登录
2018-10-11
发表于 2018-5-13 15:27:07 |显示全部楼层
中国高清论坛很棒!
回复

使用道具 举报

0

主题

0

好友

1万

积分

影坛巨星

Rank: 8Rank: 8

UID
925568
主题
0
金钱
5914
高清币
4034
鲜花
0
阅读权限
90
QQ
QQ
最后登录
2018-8-13
发表于 2018-5-13 15:28:56 |显示全部楼层
中国高清论坛很棒!
回复

使用道具 举报

0

主题

0

好友

9940

积分

金鸡奖主角

Rank: 5Rank: 5

UID
775183
主题
0
金钱
5300
高清币
116
鲜花
0
阅读权限
70
QQ
QQ
最后登录
2018-10-18
发表于 2018-5-13 15:30:47 |显示全部楼层
感谢楼主分享精彩电影!
回复

使用道具 举报

期待您加入中国高清论坛QQ交流6群:20818254
 懒得打字嘛,点击右侧快捷回复【左侧自定义内容】  【右侧自定义内容】
您需要登录后才可以回帖 登录 | 立即注册

回顶部