请选择 进入手机版 | 继续访问电脑版

中国高清论坛

 找回密码
 立即注册
查看: 792|回复: 152

[奇幻片] 日影之下.In.the.Shadow.of.the.Sun.1981.1080p.BluRay.x264-GHOULS 4.37GB

  [复制链接]

354

主题

5

好友

7390

积分

版主

Rank: 7Rank: 7Rank: 7

UID
911552
主题
354
金钱
1451
高清币
2747
鲜花
0
阅读权限
100
QQ
QQ
最后登录
2018-5-26

双鱼座

发表于 2018-5-16 21:30:55 |显示全部楼层
p2386620957.jpg


导演: Derek Jarman
主演: Karl Bowen / Graham Dowie / Christopher Hobbs / Gerald Incandela / 安德鲁·罗根
类型: 奇幻
制片国家/地区: 英国
语言: 无对白
上映日期: 1981-02(柏林电影节)
片长: 51 min
IMDb链接: tt0080920
豆瓣评分 7.7


Video
ID                                       : 1
Format                                   : AVC
Format/Info                              : Advanced Video Codec
Format profile                           : High@L4.1
Format settings                          : CABAC / 5 Ref Frames
Format settings, CABAC                   : Yes
Format settings, RefFrames               : 5 frames
Codec ID                                 : V_MPEG4/ISO/AVC
Duration                                 : 58 min 54 s
Bit rate                                 : 9 979 kb/s
Width                                    : 1 424 pixels
Height                                   : 1 080 pixels
Display aspect ratio                     : 4:3
Frame rate mode                          : Constant
Frame rate                               : 24.000 FPS
Color space                              : YUV
Chroma subsampling                       : 4:2:0
Bit depth                                : 8 bits
Scan type                                : Progressive
Bits/(Pixel*Frame)                       : 0.270
Stream size                              : 4.02 GiB (92%)
Writing library                          : x264 core 155 r2901 7d0ff22
Encoding settings                        : cabac=1 / ref=5 / deblock=1:-3:-3 / analyse=0x3:0x133 / me=umh / subme=8 / psy=1 / psy_rd=1.00:0.00 / mixed_ref=1 / me_range=16 / chroma_me=1 / trellis=1 / 8x8dct=1 / cqm=0 / deadzone=21,11 / fast_pskip=0 / chroma_qp_offset=-2 / threads=24 / lookahead_threads=4 / sliced_threads=0 / nr=0 / decimate=1 / interlaced=0 / bluray_compat=0 / constrained_intra=0 / bframes=3 / b_pyramid=2 / b_adapt=1 / b_bias=0 / direct=3 / weightb=1 / open_gop=0 / weightp=2 / keyint=250 / keyint_min=24 / scenecut=40 / intra_refresh=0 / rc_lookahead=50 / rc=2pass / mbtree=1 / bitrate=9979 / ratetol=1.0 / qcomp=0.60 / qpmin=0 / qpmax=69 / qpstep=4 / cplxblur=20.0 / qblur=0.5 / vbv_maxrate=62500 / vbv_bufsize=78125 / nal_hrd=none / filler=0 / ip_ratio=1.40 / aq=1:1.00
Default                                  : Yes
Forced                                   : No

Audio
ID                                       : 2
Format                                   : AC-3
Format/Info                              : Audio Coding 3
Format settings, Endianness              : Big
Codec ID                                 : A_AC3
Duration                                 : 58 min 54 s
Bit rate mode                            : Constant
Bit rate                                 : 640 kb/s
Channel(s)                               : 1 channel
Channel positions                        : Front: C
Sampling rate                            : 48.0 kHz
Frame rate                               : 31.250 FPS (1536 SPF)
Bit depth                                : 16 bits
Compression mode                         : Lossy
Stream size                              : 270 MiB (6%)
Language                                 : English
Service kind                             : Complete Main
Default                                  : Yes
Forced                                   : No

Menu
00:00:00.000                             : en:00:00:00.000
00:06:02.333                             : en:00:06:02.333
00:11:54.333                             : en:00:11:54.333
00:18:43.292                             : en:00:18:43.292
00:24:38.375                             : en:00:24:38.375
00:28:57.625                             : en:00:28:57.625
00:36:10.500                             : en:00:36:10.500
00:40:52.833                             : en:00:40:52.833
00:47:17.167                             : en:00:47:17.167
00:56:15.042                             : en:00:56:15.042

游客,如果您要查看本帖隐藏内容请回复


回复

使用道具 举报

0

主题

0

好友

1075

积分

人气偶像

Rank: 3Rank: 3

UID
327020
主题
0
金钱
541
高清币
86
鲜花
0
阅读权限
30
QQ
QQ
最后登录
2018-5-24
发表于 2018-5-16 21:34:21 |显示全部楼层
最好表回来....回来..偶也扒了你的.......猪皮........
回复

使用道具 举报

0

主题

0

好友

4万

积分

永恒神话

Rank: 10Rank: 10Rank: 10

UID
135229
主题
0
金钱
14615
高清币
8293
鲜花
0
阅读权限
90
QQ
QQ
最后登录
2018-5-27
发表于 2018-5-16 21:42:26 |显示全部楼层
感谢楼主分享
回复

使用道具 举报

0

主题

0

好友

1466

积分

人气偶像

Rank: 3Rank: 3

UID
772700
主题
0
金钱
785
高清币
139
鲜花
0
阅读权限
30
QQ
QQ
最后登录
2018-5-26
发表于 2018-5-16 21:52:49 |显示全部楼层
感谢楼主分享精彩电影!
回复

使用道具 举报

0

主题

0

好友

6129

积分

金鸡奖主角

Rank: 5Rank: 5

UID
809912
主题
0
金钱
2752
高清币
612
鲜花
0
阅读权限
70
QQ
QQ
最后登录
2018-5-26
发表于 2018-5-16 21:55:08 |显示全部楼层
每天都来中国高清论坛看看有什么电影!
回复

使用道具 举报

0

主题

0

好友

5万

积分

永恒神话

Rank: 10Rank: 10Rank: 10

UID
116520
主题
0
金钱
19686
高清币
10013
鲜花
0
阅读权限
90
QQ
QQ
最后登录
2018-5-26
发表于 2018-5-16 21:55:33 |显示全部楼层
感谢楼主分享精彩电影!
回复

使用道具 举报

0

主题

0

好友

3229

积分

天王巨星

Rank: 4

UID
128318
主题
0
金钱
2631
高清币
1
鲜花
0
阅读权限
50
QQ
QQ
最后登录
2018-5-25
发表于 2018-5-16 22:04:20 |显示全部楼层
谢谢分享!!!
回复

使用道具 举报

0

主题

1

好友

4786

积分

天王巨星

Rank: 4

UID
178842
主题
0
金钱
2669
高清币
287
鲜花
0
阅读权限
50
QQ
QQ
最后登录
2018-5-26
发表于 2018-5-16 22:05:00 |显示全部楼层
每天都来中国高清论坛看看有什么电影!
回复

使用道具 举报

0

主题

0

好友

598

积分

知名艺人

Rank: 2

UID
927647
主题
0
金钱
350
高清币
26
鲜花
0
阅读权限
20
QQ
QQ
最后登录
2018-5-26
发表于 2018-5-16 22:07:16 |显示全部楼层
感谢楼主分享精彩电影!
回复

使用道具 举报

0

主题

0

好友

1万

积分

超级明星

Rank: 7Rank: 7Rank: 7

UID
125139
主题
0
金钱
7206
高清币
2399
鲜花
0
阅读权限
90
QQ
QQ
最后登录
2018-5-26
发表于 2018-5-16 22:08:46 |显示全部楼层
感谢楼主分享精彩电影!
回复

使用道具 举报

期待您加入中国高清论坛QQ交流3群:101032372
 懒得打字嘛,点击右侧快捷回复【左侧自定义内容】  【右侧自定义内容】
您需要登录后才可以回帖 登录 | 立即注册

回顶部