请选择 进入手机版 | 继续访问电脑版

中国高清论坛

 找回密码
 立即注册
查看: 1224|回复: 179

[惊悚片] 终端/刺杀终点战(台) Terminal.2018.WEB-DL.Amazon.1080p.Rus-MuzOboz-Ash61 7.19 GiB

  [复制链接]

1万

主题

0

好友

6万

积分

区域版主

Rank: 8Rank: 8

UID
13244
主题
12403
金钱
29063
高清币
12228
鲜花
-89
阅读权限
100
QQ
QQ
最后登录
2018-8-14
发表于 2018-5-16 22:09:01 |显示全部楼层


◎译  名 终端/刺杀终点战(台)
◎片  名 Terminal
◎年  代 2018
◎国  家 英国
◎类  别 剧情/惊悚
◎语  言 英语
◎字  幕 英文...
◎IMDb评分 5.2/10 from 1001 users
◎IMDB链接 http://www.imdb.com/title/tt4463816
◎文件格式 x264 + EAC3
◎视频尺寸 1920x1080
◎文件大小 7.19 GiB
◎片  长 1h 35mn
◎导  演 Vaughn Stein
◎主  演 玛格特·罗比
       西蒙·佩吉
       麦克·梅尔斯
       马克斯·艾恩斯
       德克斯特·弗莱彻


◎简  介


  围绕由德克斯特·弗莱彻和麦克斯·艾恩斯饰演的两个杀手、一起危险的任务和一个神秘却出价很高的雇主展开。在执行任务的过程中,他们遇到了包括神秘的看门人、一个叫做安妮的蛇蝎美人等人物,在这个变幻莫测的女人出现后,各种麻烦接踵而至。
  1. General
  2. Unique ID : 214103069872077920221141843934958978187 (0xA112C058287D1942B9AD51F72A1A048B)
  3. Complete name : D:Terminal(2018)WEB-DL(Amazon)1080p(Rus-MuzOboz[Ash61]).mkv
  4. Format : Matroska
  5. Format version : Version 2
  6. File size : 7.19 GiB
  7. Duration : 1h 35mn
  8. Overall bit rate mode : Variable
  9. Overall bit rate : 10.8 Mbps
  10. Movie name : Конченая (Конечная) / Terminal (2018)
  11. Encoded date : UTC 2018-05-15 13:46:27
  12. Writing application : mkvmerge v5.8.0 ('No Sleep / Pillow') built on Sep 2 2012 15:37:04
  13. Writing library : libebml v1.2.3 + libmatroska v1.3.0

  14. Video
  15. ID : 1
  16. Format : AVC
  17. Format/Info : Advanced Video Codec
  18. Format profile : High@L4
  19. Format settings, CABAC : Yes
  20. Format settings, ReFrames : 4 frames
  21. Codec ID : V_MPEG4/ISO/AVC
  22. Duration : 1h 35mn
  23. Bit rate mode : Variable
  24. Bit rate : 9 286 Kbps
  25. Maximum bit rate : 15.0 Mbps
  26. Width : 1 920 pixels
  27. Height : 1 080 pixels
  28. Display aspect ratio : 16:9
  29. Frame rate mode : Constant
  30. Frame rate : 23.976 (24000/1001) fps
  31. Color space : YUV
  32. Chroma subsampling : 4:2:0
  33. Bit depth : 8 bits
  34. Scan type : Progressive
  35. Bits/(Pixel*Frame) : 0.187
  36. Stream size : 6.20 GiB (86%)
  37. Title : WEB-DL (Amazon)
  38. Language : English
  39. Default : Yes
  40. Forced : No
  41. Color range : Limited
  42. Color primaries : BT.709
  43. Transfer characteristics : BT.709
  44. Matrix coefficients : BT.709

  45. Audio #1
  46. ID : 2
  47. Format : AC-3
  48. Format/Info : Audio Coding 3
  49. Mode extension : CM (complete main)
  50. Format settings, Endianness : Big
  51. Codec ID : A_AC3
  52. Duration : 1h 35mn
  53. Bit rate mode : Constant
  54. Bit rate : 640 Kbps
  55. Channel(s) : 6 channels
  56. Channel positions : Front: L C R, Side: L R, LFE
  57. Sampling rate : 48.0 KHz
  58. Frame rate : 31.250 fps (1536 spf)
  59. Compression mode : Lossy
  60. Stream size : 437 MiB (6%)
  61. Title : MVO - MuzOboz (монтаж Ash61)
  62. Language : Russian
  63. Default : Yes
  64. Forced : No

  65. Audio #2
  66. ID : 3
  67. Format : E-AC-3
  68. Format/Info : Audio Coding 3
  69. Format settings, Endianness : Big
  70. Codec ID : A_EAC3
  71. Duration : 1h 35mn
  72. Bit rate mode : Constant
  73. Bit rate : 640 Kbps
  74. Channel(s) : 6 channels
  75. Channel positions : Front: L C R, Side: L R, LFE
  76. Sampling rate : 48.0 KHz
  77. Frame rate : 187.500 fps (256 spf)
  78. Compression mode : Lossy
  79. Stream size : 437 MiB (6%)
  80. Title : Original
  81. Language : English
  82. Default : No
  83. Forced : No

  84. Text #1
  85. ID : 4
  86. Format : UTF-8
  87. Codec ID : S_TEXT/UTF8
  88. Codec ID/Info : UTF-8 Plain Text
  89. Title : Форсированные (от Ash61)
  90. Language : Russian
  91. Default : Yes
  92. Forced : No

  93. Text #2
  94. ID : 5
  95. Format : UTF-8
  96. Codec ID : S_TEXT/UTF8
  97. Codec ID/Info : UTF-8 Plain Text
  98. Title : Full
  99. Language : English
  100. Default : No
  101. Forced : No

  102. Text #3
  103. ID : 6
  104. Format : UTF-8
  105. Codec ID : S_TEXT/UTF8
  106. Codec ID/Info : UTF-8 Plain Text
  107. Title : SDH
  108. Language : English
  109. Default : No
  110. Forced : No

  111. Text #4
  112. ID : 7
  113. Format : UTF-8
  114. Codec ID : S_TEXT/UTF8
  115. Codec ID/Info : UTF-8 Plain Text
  116. Title : Full
  117. Language : Spanish
  118. Default : No
  119. Forced : No
复制代码
游客,如果您要查看本帖隐藏内容请回复,如不想回复请点击赞助VIP贵宾:https://item.taobao.com/item.htm?id=540849877691
回复

使用道具 举报

0

主题

0

好友

6743

积分

金鸡奖主角

Rank: 5Rank: 5

UID
370969
主题
0
金钱
2555
高清币
1222
鲜花
0
阅读权限
70
QQ
QQ
最后登录
2018-8-14
发表于 2018-5-16 22:13:48 |显示全部楼层
围绕由德克斯特·弗莱彻和麦克斯·艾恩斯饰演
回复

使用道具 举报

0

主题

0

好友

534

积分

知名艺人

Rank: 2

UID
296739
主题
0
金钱
403
高清币
0
鲜花
0
阅读权限
20
QQ
QQ
最后登录
2018-7-5
发表于 2018-5-16 22:17:54 |显示全部楼层
谢谢          给力
回复

使用道具 举报

0

主题

0

好友

5万

积分

永恒神话

Rank: 10Rank: 10Rank: 10

UID
83425
主题
0
金钱
22503
高清币
6248
鲜花
0
阅读权限
90
QQ
QQ
最后登录
2018-8-12
发表于 2018-5-16 22:18:50 |显示全部楼层
感谢楼主分享精彩电影!
回复

使用道具 举报

0

主题

4

好友

4234

积分

天王巨星

Rank: 4

UID
127384
主题
0
金钱
3580
高清币
1
鲜花
0
阅读权限
50
QQ
QQ
最后登录
2018-8-14
发表于 2018-5-16 22:19:45 |显示全部楼层
每天都来中国高清论坛看看有什么电影!
回复

使用道具 举报

0

主题

2

好友

2万

积分

superstar

Rank: 9Rank: 9Rank: 9

UID
139258
主题
0
金钱
14403
高清币
2979
鲜花
0
阅读权限
90
QQ
QQ
最后登录
2018-8-14
发表于 2018-5-16 22:19:50 |显示全部楼层
感谢楼主分享精彩电影!
回复

使用道具 举报

0

主题

0

好友

1万

积分

好莱坞明星

Rank: 6Rank: 6

UID
103138
主题
0
金钱
7763
高清币
629
鲜花
0
阅读权限
90
QQ
QQ
最后登录
2018-8-13
发表于 2018-5-16 22:20:22 |显示全部楼层
感谢楼主分享精彩电影!!
回复

使用道具 举报

0

主题

0

好友

5319

积分

金鸡奖主角

Rank: 5Rank: 5

UID
120862
主题
0
金钱
3871
高清币
11
鲜花
0
阅读权限
70
最后登录
2018-8-14
发表于 2018-5-16 22:22:09 |显示全部楼层
感谢楼主分享精彩电影!
回复

使用道具 举报

0

主题

0

好友

6868

积分

金鸡奖主角

Rank: 5Rank: 5

UID
809637
主题
0
金钱
2365
高清币
1286
鲜花
0
阅读权限
70
QQ
QQ
最后登录
2018-8-9
发表于 2018-5-16 22:22:35 |显示全部楼层
感谢楼主分享精彩电影!
回复

使用道具 举报

1

主题

0

好友

3132

积分

天王巨星

Rank: 4

UID
733342
主题
1
金钱
1819
高清币
13
鲜花
0
阅读权限
50
QQ
QQ
最后登录
2018-8-12
发表于 2018-5-16 22:23:08 |显示全部楼层

感谢楼主分享精彩电影!
回复

使用道具 举报

期待您加入中国高清论坛QQ交流6群:20818254
 懒得打字嘛,点击右侧快捷回复【左侧自定义内容】  【右侧自定义内容】
您需要登录后才可以回帖 登录 | 立即注册

回顶部