请选择 进入手机版 | 继续访问电脑版

中国高清论坛

 找回密码
 立即注册
查看: 1341|回复: 160

[科幻片] 湮灭/遗落的南境1:湮灭/灭.境(港)/灭绝(台) Annihilation.2018.720p.BluRay.x264.DD5.1-HDC 4.53 GiB

  [复制链接]

1万

主题

0

好友

7万

积分

区域版主

Rank: 8Rank: 8

UID
13244
主题
13172
金钱
30739
高清币
12990
鲜花
-88
阅读权限
100
QQ
QQ
最后登录
2018-10-19
发表于 2018-5-16 23:47:25 |显示全部楼层
本帖最后由 jinggangshi 于 2018-5-16 23:54 编辑



◎译  名 湮灭/遗落的南境1:湮灭/灭.境(港)/灭绝(台)
◎片  名 Annihilation
◎年  代 2018
◎国  家 美国/英国
◎类  别 科幻/悬疑/惊悚
◎语  言 英语
◎字  幕 英文
◎IMDb评分  7.0/10 from 122950 users
◎IMDB链接 http://imdb.com/title/tt2798920/
◎文件格式 x264 + AC3
◎视频尺寸 1280x535
◎文件大小 4.53 GiB
◎片  长 1 h 55 min
◎导  演 亚历克斯·加兰 Alex Garland
◎主  演 娜塔莉·波特曼 Natalie Portman
       詹妮弗·杰森·李 Jennifer Jason Leigh
       奥斯卡·伊萨克 Oscar Isaac
       吉娜·罗德里格兹 Gina Rodriguez
       泰莎·汤普森 Tessa Thompson
       水野索诺娅 Sonoya Mizuno
       大卫·吉雅西 David Gyasi
       图娃·诺沃妮 Tuva Novotny
       本尼迪克特·王 Benedict Wong
       约翰·施瓦布 John Schwab
       萨米·海曼 Sammy Hayman
       乔希·丹福德 Josh Danford
       克里斯汀·麦加里蒂 Kristen McGarrity

◎简  介

  生物学家Lena(波特曼)为调查丈夫(伊萨克饰)的失踪,参加了神秘组织Southern Reach组织的科学考察,4名女性组队,去研究美国领土内一块被检疫隔离的生态灾害区域“X地区”。她发现那里是原生态的荒野,隐藏着神秘的黑暗力量。这已经是对该地区的第12次考察,前11次全都 失败,比如第二次考察终结于去的考察队员集体自杀,第三次考察队拔枪互相残杀,第11次队员全体失去神志,回来后不久都死于癌症……
  1. Video
  2. ID                                       : 1
  3. Format                                   : AVC
  4. Format/Info                              : Advanced Video Codec
  5. Format profile                           : High@L4.1
  6. Format settings                          : CABAC / 12 Ref Frames
  7. Format settings, CABAC                   : Yes
  8. Format settings, ReFrames                : 12 frames
  9. Codec ID                                 : V_MPEG4/ISO/AVC
  10. Duration                                 : 1 h 55 min
  11. Bit rate                                 : 5 000 kb/s
  12. Width                                    : 1 280 pixels
  13. Height                                   : 535 pixels
  14. Original height                          : 536 pixels
  15. Display aspect ratio                     : 2.40:1
  16. Frame rate mode                          : Constant
  17. Frame rate                               : 23.976 (24000/1001) FPS
  18. Color space                              : YUV
  19. Chroma subsampling                       : 4:2:0
  20. Bit depth                                : 8 bits
  21. Scan type                                : Progressive
  22. Bits/(Pixel*Frame)                       : 0.305
  23. Stream size                              : 4.02 GiB (89%)
  24. Title                                    : Annihilation.2018.720p.BluRay.x264.DD5.1-HDC
  25. Writing library                          : x264 core 148 r2665kMod a01e339
  26. Encoding settings                        : cabac=1 / ref=12 / deblock=1:-3:-3 / analyse=0x3:0x133 / me=umh / subme=11 / psy=1 / fade_compensate=0.00 / psy_rd=1.05:0.00 / mixed_ref=1 / me_range=32 / chroma_me=1 / trellis=2 / 8x8dct=1 / cqm=0 / deadzone=21,11 / fast_pskip=0 / chroma_qp_offset=-2 / threads=17 / lookahead_threads=2 / sliced_threads=0 / nr=0 / decimate=0 / interlaced=0 / bluray_compat=0 / constrained_intra=0 / fgo=0 / bframes=8 / b_pyramid=2 / b_adapt=2 / b_bias=0 / direct=3 / weightb=1 / open_gop=0 / weightp=2 / keyint=240 / keyint_min=24 / scenecut=40 / intra_refresh=0 / rc=2pass / mbtree=0 / bitrate=5000 / ratetol=1.0 / qcomp=0.70 / qpmin=0 / qpmax=69 / qpstep=4 / cplxblur=20.0 / qblur=0.5 / ip_ratio=1.20 / pb_ratio=1.20 / aq=3:0.85
  27. Default                                  : Yes
  28. Forced                                   : No

  29. Audio
  30. ID                                       : 2
  31. Format                                   : AC-3
  32. Format/Info                              : Audio Coding 3
  33. Codec ID                                 : A_AC3
  34. Duration                                 : 1 h 55 min
  35. Bit rate mode                            : Constant
  36. Bit rate                                 : 640 kb/s
  37. Channel(s)                               : 6 channels
  38. Channel positions                        : Front: L C R, Side: L R, LFE
  39. Sampling rate                            : 48.0 kHz
  40. Frame rate                               : 31.250 FPS (1536 SPF)
  41. Bit depth                                : 16 bits
  42. Compression mode                         : Lossy
  43. Stream size                              : 526 MiB (11%)
  44. Title                                    : Annihilation.2018.720p.BluRay.x264.DD5.1-HDC
  45. Language                                 : English
  46. Service kind                             : Complete Main
  47. Default                                  : Yes
  48. Forced                                   : No

  49. Text
  50. ID                                       : 3
  51. Format                                   : UTF-8
  52. Codec ID                                 : S_TEXT/UTF8
  53. Codec ID/Info                            : UTF-8 Plain Text
  54. Duration                                 : 1 h 46 min
  55. Bit rate                                 : 33 b/s
  56. Count of elements                        : 1008
  57. Stream size                              : 26.1 KiB (0%)
  58. Language                                 : English
  59. Default                                  : Yes
  60. Forced                                   : No

  61. Menu
  62. 00:00:00.000                             : en:00:00:00.000
  63. 00:05:09.309                             : en:00:05:09.309
  64. 00:11:39.157                             : en:00:11:39.157
  65. 00:17:06.692                             : en:00:17:06.692
  66. 00:24:08.656                             : en:00:24:08.656
  67. 00:28:59.446                             : en:00:28:59.446
  68. 00:37:24.242                             : en:00:37:24.242
  69. 00:41:59.517                             : en:00:41:59.517
  70. 00:49:11.448                             : en:00:49:11.448
  71. 00:56:06.405                             : en:00:56:06.405
  72. 01:03:22.298                             : en:01:03:22.298
  73. 01:10:25.012                             : en:01:10:25.012
  74. 01:17:21.929                             : en:01:17:21.929
  75. 01:22:20.477                             : en:01:22:20.477
  76. 01:30:26.296                             : en:01:30:26.296
  77. 01:38:48.589                             : en:01:38:48.589
  78. 01:43:58.357                             : en:01:43:58.357
  79. 01:48:14.279                             : en:01:48:14.279



复制代码






游客,如果您要查看本帖隐藏内容请回复,如不想回复请点击赞助VIP贵宾:https://item.taobao.com/item.htm?id=540849877691
回复

使用道具 举报

1

主题

0

好友

5万

积分

永恒神话

Rank: 10Rank: 10Rank: 10

UID
911441
主题
1
金钱
22340
高清币
6816
鲜花
0
阅读权限
90
QQ
QQ
最后登录
2018-10-18
发表于 2018-5-16 23:54:07 |显示全部楼层
感谢分享精彩好电影!!!
回复

使用道具 举报

0

主题

0

好友

5010

积分

金鸡奖主角

Rank: 5Rank: 5

UID
559705
主题
0
金钱
2808
高清币
371
鲜花
0
阅读权限
70
QQ
QQ
最后登录
2018-10-18
发表于 2018-5-17 00:11:53 |显示全部楼层

感谢楼主分享
回复

使用道具 举报

0

主题

0

好友

781

积分

知名艺人

Rank: 2

UID
243960
主题
0
金钱
537
高清币
1
鲜花
0
阅读权限
20
QQ
QQ
最后登录
2018-10-16
发表于 2018-5-17 00:16:02 |显示全部楼层
感谢分享精彩好电影!!!
回复

使用道具 举报

0

主题

0

好友

1万

积分

影坛巨星

Rank: 8Rank: 8

UID
925568
主题
0
金钱
5914
高清币
4034
鲜花
0
阅读权限
90
QQ
QQ
最后登录
2018-8-13
发表于 2018-5-17 00:21:35 |显示全部楼层
中国高清论坛很棒!
回复

使用道具 举报

0

主题

0

好友

1万

积分

好莱坞明星

Rank: 6Rank: 6

UID
131677
主题
0
金钱
3702
高清币
2025
鲜花
0
阅读权限
90
QQ
QQ
最后登录
2018-10-10
发表于 2018-5-17 00:34:23 |显示全部楼层
谢谢楼主分享
回复

使用道具 举报

0

主题

0

好友

10

积分

跑龙套

Rank: 1

UID
930362
主题
0
金钱
4
高清币
2
鲜花
0
阅读权限
10
QQ
QQ
最后登录
2018-5-17
发表于 2018-5-17 00:38:27 |显示全部楼层

老司机开车了 懂得上车:
http://72eq.com/portal.php?x=68210
回复

使用道具 举报

0

主题

2

好友

3399

积分

天王巨星

Rank: 4

UID
178030
主题
0
金钱
2156
高清币
143
鲜花
0
阅读权限
50
QQ
QQ
最后登录
2018-10-18
发表于 2018-5-17 00:39:55 |显示全部楼层
每天都来中国高清论坛看看有什么电影!
回复

使用道具 举报

0

主题

0

好友

761

积分

知名艺人

Rank: 2

UID
779344
主题
0
金钱
452
高清币
4
鲜花
0
阅读权限
20
QQ
QQ
最后登录
2018-9-13
发表于 2018-5-17 00:40:01 |显示全部楼层
我看不错噢 谢谢楼主!
回复

使用道具 举报

0

主题

2

好友

3399

积分

天王巨星

Rank: 4

UID
178030
主题
0
金钱
2156
高清币
143
鲜花
0
阅读权限
50
QQ
QQ
最后登录
2018-10-18
发表于 2018-5-17 00:44:08 |显示全部楼层
每天都来中国高清论坛看看有什么电影!
回复

使用道具 举报

期待您加入中国高清论坛QQ交流6群:20818254
 懒得打字嘛,点击右侧快捷回复【左侧自定义内容】  【右侧自定义内容】
您需要登录后才可以回帖 登录 | 立即注册

回顶部