请选择 进入手机版 | 继续访问电脑版

中国高清论坛

 找回密码
 立即注册
查看: 531|回复: 97

[动作片] 环太平洋:雷霆再起/环太平洋2/环太平洋2:雷霆再起/环太平洋2:崛起/环太平洋2:漩涡/环太平洋2:起义时刻(台)/悍战太平洋2:起义时空(港) Pacific.Rim.Uprising.2018.60.fps.BDRip.1080p-and77200 6.65 GiB

  [复制链接]

1万

主题

0

好友

6万

积分

区域版主

Rank: 8Rank: 8

UID
13244
主题
11975
金钱
28119
高清币
11800
鲜花
-89
阅读权限
100
QQ
QQ
最后登录
2018-6-26
发表于 2018-6-13 21:45:45 |显示全部楼层



◎译  名 环太平洋:雷霆再起/环太平洋2/环太平洋2:雷霆再起/环太平洋2:崛起/环太平洋2:漩涡/环太平洋2:起义时刻(台)/悍战太平洋2:起义时空(港)
◎片  名 Pacific Rim: Uprising
◎年  代 2018
◎国  家 美国/中国
◎类  别 动作/科幻/冒险
◎语  言 英语
◎字  幕 英文...
◎IMDb评分 6.0/10 from 26,058 users
◎IMDB链接 http://www.imdb.com/title/tt2557478
◎文件格式 x264 + AC3
◎视频尺寸 1920x800
◎文件大小 6.65 GiB
◎片  长 1 h 50 min
◎导  演 斯蒂文·S·迪奈特 Steven S. DeKnight
◎主  演 约翰·博耶加 John Boyega
      斯科特·伊斯特伍德 Scott Eastwood
      卡莉·史派妮 Cailee Spaeny
      景甜 Tian Jing
      查理·戴 Charlie Day
      伯恩·戈曼 Burn Gorman
      张晋 Max Zhang
      亚德里亚·霍纳 Adria Arjona
      菊地凛子 Rinko Kikuchi
      卡兰·布拉尔 Karan Brar
      黄恺杰 Wesley Wong
      伊万娜·萨赫诺 Ivanna Sakhno
      新田真剑佑 Mackenyu
      吉丽 Lily Ji
      雪莉·罗德里格斯 Shyrley Rodriguez
      拉哈特·亚当斯 Rahart Adams
      列维·米登 Levi Meaden
      达斯汀·克莱尔 Dustin Clare
      陈梓童 Queen T
      于小伟 Xiaowei Yu
      钱泳辰 Yongchen Qian
      郭家铭 Jiaming Guo
      蓝盈莹 Lyric Lan
      金桢勋 Jeong-Hoon Kim
      菊池润美 Rumi Kikuchi
      丹尼尔·弗雷里格尔 Daniel Feuerriegel
      齐柏林·汉密尔顿 Zeppelin Hamilton
      尼克·塔拉贝 Nick E. Tarabay
      布里德基·萨蒂纳 Bridger Zadina
      小蒂姆·约翰逊 Tim Johnson Jr.
      玛德琳·麦格劳 Madeleine McGraw
      乔什·斯坦伯 Josh Stamberg
      斯蒂芬妮·阿琳 Stephanie Allynne
      卢克·朱迪 Luke Judy

◎简  介

  故事发生在距离前作战乱结束十年之后的2035年。随着科技的进步,机甲更新换代,拥有了更先进的功能和更强劲的战斗力。但外星“先驱”仍对地球蠢蠢欲动,当海底虫洞再次被打开,进化而来的怪兽更加庞大且智慧,它们似乎酝酿着更具威胁追高清的阴谋,地球再次陷入被巨兽侵袭的危机。面对机甲驾驶员的短缺,杰克(约翰·波耶加 饰)与奈特(斯科特·伊斯特伍德 饰)这对曾经的机甲驾驶员搭档再次联手,不得不冒险率领从未有过实战经验的机甲学员们奋起抵抗,为守护住人类最后的希望与怪兽展开硬碰硬的激烈一战。

  1. General
  2. Unique ID : 12363207383859437520284454869447707686 (0x94D112F7E04F6DB47C8BEB5754F8C26)
  3. Complete name : E:Pacific.Rim.Uprising.2018.60.fps.BDRip.1080p.and77200.mkv
  4. Format : Matroska
  5. Format version : Version 4 / Version 2
  6. File size : 6.65 GiB
  7. Duration : 1h 50mn
  8. Overall bit rate : 8 599 Kbps
  9. Movie name : Тихоокеанский рубеж 2.2018 - and77200
  10. Encoded date : UTC 2018-06-12 06:25:27
  11. Writing application : mkvmerge v20.0.0 ('I Am The Sun') 64-bit
  12. Writing library : libebml v1.3.5 + libmatroska v1.4.8
  13. DURATION : 01:40:27.701000000
  14. NUMBER_OF_FRAMES : 59
  15. NUMBER_OF_BYTES : 3756
  16. _STATISTICS_WRITING_APP : mkvmerge v20.0.0 ('I Am The Sun') 64-bit
  17. _STATISTICS_WRITING_DATE_UTC : 2018-06-12 06:25:27
  18. _STATISTICS_TAGS : BPS DURATION NUMBER_OF_FRAMES NUMBER_OF_BYTES

  19. Video
  20. ID : 1
  21. Format : AVC
  22. Format/Info : Advanced Video Codec
  23. Format profile : High@L4.1
  24. Format settings, CABAC : Yes
  25. Format settings, ReFrames : 5 frames
  26. Codec ID : V_MPEG4/ISO/AVC
  27. Duration : 1h 50mn
  28. Bit rate : 7 403 Kbps
  29. Width : 1 920 pixels
  30. Height : 800 pixels
  31. Display aspect ratio : 2.40:1
  32. Frame rate : 60.000 fps
  33. Color space : YUV
  34. Chroma subsampling : 4:2:0
  35. Bit depth : 8 bits
  36. Scan type : Progressive
  37. Bits/(Pixel*Frame) : 0.080
  38. Stream size : 5.72 GiB (86%)
  39. Writing library : x264 core 155 r2901M 7d0ff22
  40. Encoding settings : cabac=1 / ref=5 / deblock=1:-1:-1 / analyse=0x3:0x113 / me=umh / subme=11 / psy=1 / psy_rd=1.05:0.15 / mixed_ref=1 / me_range=32 / chroma_me=1 / trellis=2 / 8x8dct=1 / cqm=0 / deadzone=21,11 / fast_pskip=0 / chroma_qp_offset=-3 / threads=2 / lookahead_threads=1 / sliced_threads=0 / nr=0 / decimate=1 / interlaced=0 / bluray_compat=0 / constrained_intra=0 / bframes=6 / b_pyramid=2 / b_adapt=2 / b_bias=0 / direct=3 / weightb=1 / open_gop=0 / weightp=2 / keyint=600 / keyint_min=60 / scenecut=40 / intra_refresh=0 / rc_lookahead=60 / rc=crf / mbtree=1 / crf=17.5 / qcomp=0.70 / qpmin=3 / qpmax=69 / qpstep=9 / ip_ratio=1.40 / aq=2:1.00
  41. Language : English
  42. Default : Yes
  43. Forced : No
  44. DURATION : 01:50:42.117000000
  45. NUMBER_OF_FRAMES : 398527
  46. NUMBER_OF_BYTES : 6285128316
  47. _STATISTICS_WRITING_APP : mkvmerge v20.0.0 ('I Am The Sun') 64-bit
  48. _STATISTICS_WRITING_DATE_UTC : 2018-06-12 06:25:27
  49. _STATISTICS_TAGS : BPS DURATION NUMBER_OF_FRAMES NUMBER_OF_BYTES

  50. Audio #1
  51. ID : 2
  52. Format : AC-3
  53. Format/Info : Audio Coding 3
  54. Mode extension : CM (complete main)
  55. Codec ID : A_AC3
  56. Duration : 1h 50mn
  57. Bit rate mode : Constant
  58. Bit rate : 384 Kbps
  59. Channel(s) : 6 channels
  60. Channel positions : Front: L C R, Side: L R, LFE
  61. Sampling rate : 48.0 KHz
  62. Bit depth : 16 bits
  63. Compression mode : Lossy
  64. Stream size : 304 MiB (4%)
  65. Title : iTunes
  66. Language : Russian
  67. Default : Yes
  68. Forced : Yes

  69. Audio #2
  70. ID : 3
  71. Format : AC-3
  72. Format/Info : Audio Coding 3
  73. Mode extension : CM (complete main)
  74. Codec ID : A_AC3
  75. Duration : 1h 50mn
  76. Bit rate mode : Constant
  77. Bit rate : 192 Kbps
  78. Channel(s) : 2 channels
  79. Channel positions : Front: L R
  80. Sampling rate : 48.0 KHz
  81. Bit depth : 16 bits
  82. Compression mode : Lossy
  83. Stream size : 152 MiB (2%)
  84. Language : Ukrainian
  85. Default : No
  86. Forced : No

  87. Audio #3
  88. ID : 4
  89. Format : AC-3
  90. Format/Info : Audio Coding 3
  91. Mode extension : CM (complete main)
  92. Codec ID : A_AC3
  93. Duration : 1h 50mn
  94. Bit rate mode : Constant
  95. Bit rate : 448 Kbps
  96. Channel(s) : 6 channels
  97. Channel positions : Front: L C R, Side: L R, LFE
  98. Sampling rate : 48.0 KHz
  99. Bit depth : 16 bits
  100. Compression mode : Lossy
  101. Stream size : 355 MiB (5%)
  102. Title : Original
  103. Language : English
  104. Default : No
  105. Forced : No

  106. Text #1
  107. ID : 5
  108. Format : UTF-8
  109. Codec ID : S_TEXT/UTF8
  110. Codec ID/Info : UTF-8 Plain Text
  111. Title : Forced
  112. Language : Russian
  113. Default : Yes
  114. Forced : Yes

  115. Text #2
  116. ID : 6
  117. Format : UTF-8
  118. Codec ID : S_TEXT/UTF8
  119. Codec ID/Info : UTF-8 Plain Text
  120. Title : full
  121. Language : Russian
  122. Default : No
  123. Forced : No

  124. Text #3
  125. ID : 7
  126. Format : UTF-8
  127. Codec ID : S_TEXT/UTF8
  128. Codec ID/Info : UTF-8 Plain Text
  129. Title : forced
  130. Language : Ukrainian
  131. Default : No
  132. Forced : No

  133. Text #4
  134. ID : 8
  135. Format : UTF-8
  136. Codec ID : S_TEXT/UTF8
  137. Codec ID/Info : UTF-8 Plain Text
  138. Title : full
  139. Language : English
  140. Default : No
  141. Forced : No

  142. Menu
  143. 00:00:00.000 : en:00:00:00.000
  144. 00:06:54.873 : en:00:06:54.873
  145. 00:13:05.368 : en:00:13:05.368
  146. 00:15:51.075 : en:00:15:51.075
  147. 00:20:36.360 : en:00:20:36.360
  148. 00:24:49.697 : en:00:24:49.697
  149. 00:31:08.241 : en:00:31:08.241
  150. 00:37:56.065 : en:00:37:56.065
  151. 00:43:37.949 : en:00:43:37.949
  152. 00:49:01.939 : en:00:49:01.939
  153. 00:53:40.926 : en:00:53:40.926
  154. 00:58:12.030 : en:00:58:12.030
  155. 01:04:45.006 : en:01:04:45.006
  156. 01:09:25.536 : en:01:09:25.536
  157. 01:14:36.722 : en:01:14:36.722
  158. 01:22:53.427 : en:01:22:53.427
  159. 01:29:02.546 : en:01:29:02.546
  160. 01:33:10.585 : en:01:33:10.585
  161. 01:38:07.381 : en:01:38:07.381
  162. 01:40:55.049 : en:01:40:55.049
复制代码






游客,如果您要查看本帖隐藏内容请回复
回复

使用道具 举报

0

主题

0

好友

9977

积分

金鸡奖主角

Rank: 5Rank: 5

UID
483158
主题
0
金钱
2950
高清币
2233
鲜花
-50
阅读权限
70
QQ
QQ
最后登录
2018-6-23
发表于 2018-6-13 21:51:02 |显示全部楼层
欢迎加入Bt49粉丝群:100124949
回复

使用道具 举报

0

主题

0

好友

695

积分

知名艺人

Rank: 2

UID
521718
主题
0
金钱
423
高清币
14
鲜花
0
阅读权限
20
QQ
QQ
最后登录
2018-6-19
发表于 2018-6-13 21:53:26 |显示全部楼层
感谢楼主分享精彩电影!
回复

使用道具 举报

0

主题

0

好友

2395

积分

人气偶像

Rank: 3Rank: 3

UID
307304
主题
0
金钱
1455
高清币
13
鲜花
0
阅读权限
30
QQ
QQ
最后登录
2018-6-25
发表于 2018-6-13 21:54:41 |显示全部楼层
故事发生在距离前作战乱结束十年之后的2035年。随着科技的进步,机甲更新换代,拥有了更先进的功能和更强劲的战斗力。但外星“先驱”仍对地球蠢蠢欲动,当海底虫洞再次被打开,进化而来的怪兽更加庞大且智慧,
回复

使用道具 举报

0

主题

0

好友

1420

积分

人气偶像

Rank: 3Rank: 3

UID
811137
主题
0
金钱
863
高清币
2
鲜花
0
阅读权限
30
QQ
QQ
最后登录
2018-6-24
发表于 2018-6-13 21:59:53 |显示全部楼层
  • 侏罗纪游戏侏罗纪游戏侏罗纪游戏侏罗纪游戏

回复

使用道具 举报

0

主题

0

好友

5万

积分

永恒神话

Rank: 10Rank: 10Rank: 10

UID
178533
主题
0
金钱
19700
高清币
10195
鲜花
0
阅读权限
90
QQ
QQ
最后登录
2018-6-25
发表于 2018-6-13 22:01:45 |显示全部楼层
谢谢发片,辛苦了
回复

使用道具 举报

0

主题

0

好友

1万

积分

好莱坞明星

Rank: 6Rank: 6

UID
212926
主题
0
金钱
6189
高清币
129
鲜花
0
阅读权限
90
QQ
QQ
最后登录
2018-6-25
发表于 2018-6-13 22:05:24 |显示全部楼层
感谢楼主分享精彩电影!
回复

使用道具 举报

1

主题

0

好友

3万

积分

永恒神话

Rank: 10Rank: 10Rank: 10

UID
247971
主题
1
金钱
11457
高清币
6033
鲜花
0
阅读权限
90
QQ
QQ
最后登录
2018-6-25
发表于 2018-6-13 22:07:28 |显示全部楼层
感谢楼主分享精彩电影!
回复

使用道具 举报

0

主题

0

好友

3万

积分

永恒神话

Rank: 10Rank: 10Rank: 10

UID
911280
主题
0
金钱
9641
高清币
9021
鲜花
0
阅读权限
90
QQ
QQ
最后登录
2018-6-21
发表于 2018-6-13 22:10:08 |显示全部楼层
感谢楼主分享精彩电影!
回复

使用道具 举报

0

主题

0

好友

2565

积分

人气偶像

Rank: 3Rank: 3

UID
179920
主题
0
金钱
1691
高清币
16
鲜花
0
阅读权限
30
QQ
QQ
最后登录
2018-6-13
发表于 2018-6-13 22:10:39 |显示全部楼层
楼主分享的高清电影太好了!
回复

使用道具 举报

期待您加入中国高清论坛QQ交流9群:385052643
 懒得打字嘛,点击右侧快捷回复【左侧自定义内容】  【右侧自定义内容】
您需要登录后才可以回帖 登录 | 立即注册

回顶部