请选择 进入手机版 | 继续访问电脑版

中国高清论坛

 找回密码
 立即注册
查看: 981|回复: 103

[惊悚片] 冲出阴影 Out.of.the.Shadows.2018.1080p.WEB-DL.DD5.1.H.264.CRO-DIAMOND 3.09 GiB

  [复制链接]

1万

主题

0

好友

6万

积分

区域版主

Rank: 8Rank: 8

UID
13244
主题
12859
金钱
30068
高清币
12682
鲜花
-88
阅读权限
100
QQ
QQ
最后登录
2018-9-26
发表于 2018-6-13 22:44:39 |显示全部楼层


◎译  名 冲出阴影
◎片  名 Out of the Shadows
◎年  代 2018
◎国  家 澳大利亚
◎类  别 惊悚
◎语  言 英语
◎字  幕 英文
◎IMDb评分 3.7/10 from 62 users
◎IMDB链接 http://imdb.com/title/tt4866768/
◎文件格式 H264 + AC3
◎视频尺寸 1908x792
◎文件大小 3.09 GiB
◎片  长 1 h 28 min
◎导  演 Dee McLachlan
◎主  演 Goran D. Kleut... Mr. Augusta
       Lisa Chappell... Linda Dee
       Jake Ryan... Charles Winter
       Helmut Bakaitis... Father Joe Phillips
       Kendal Rae... Katrina Hughes
       im Robison... Robert Long
       Milan Pulvermacher... Terry



◎简  介


  A newly married detective and his pregnant wife move into their dream home unaware of its dark history. When his wife claims their baby is being tormented by a supernatural force and seeks the help of a renegade demonologist, he must investigate the past to save his family.
  1. General
  2. Unique ID : 326010777513410060710232660867720365906 (0xF5436450F9FF5AC0487F6BD704734752)
  3. Complete name : Out.of.the.Shadows.2018.1080p.WEB-DL.DD5.1.H.264.CRO-DIAMOND.mkv
  4. Format : Matroska
  5. Format version : Version 4 / Version 2
  6. File size : 3.09 GiB
  7. Duration : 1h 28mn
  8. Overall bit rate : 4 988 Kbps
  9. Movie name : CRO DIAMOND 1080p
  10. Encoded date : UTC 2018-06-12 17:30:04
  11. Writing application : mkvmerge v7.2.0 ('On Every Street') 64bit built on Oct 7 2014 18:52:30
  12. Writing library : libebml v1.3.0 + libmatroska v1.4.1
  13. DURATION : 01:23:40.882000000
  14. NUMBER_OF_FRAMES : 1044
  15. NUMBER_OF_BYTES : 26955
  16. _STATISTICS_WRITING_APP : mkvmerge v7.2.0 ('On Every Street') 64bit built on Oct 7 2014 18:52:30
  17. _STATISTICS_WRITING_DATE_UTC : 2018-06-12 17:30:04
  18. _STATISTICS_TAGS : BPS DURATION NUMBER_OF_FRAMES NUMBER_OF_BYTES

  19. Video
  20. ID : 1
  21. Format : AVC
  22. Format/Info : Advanced Video Codec
  23. Format profile : High@L4.0
  24. Format settings, CABAC : Yes
  25. Format settings, ReFrames : 5 frames
  26. Codec ID : V_MPEG4/ISO/AVC
  27. Duration : 1h 28mn
  28. Bit rate : 4 505 Kbps
  29. Width : 1 908 pixels
  30. Height : 792 pixels
  31. Display aspect ratio : 2.40:1
  32. Frame rate mode : Constant
  33. Frame rate : 23.976 fps
  34. Color space : YUV
  35. Chroma subsampling : 4:2:0
  36. Bit depth : 8 bits
  37. Scan type : Progressive
  38. Bits/(Pixel*Frame) : 0.124
  39. Stream size : 2.79 GiB (90%)
  40. Title : CRO DIAMOND 1080p
  41. Language : English
  42. Default : Yes
  43. Forced : No
  44. Color primaries : BT.709
  45. Transfer characteristics : BT.709
  46. Matrix coefficients : BT.709

  47. Audio
  48. ID : 2
  49. Format : AC-3
  50. Format/Info : Audio Coding 3
  51. Mode extension : CM (complete main)
  52. Format settings, Endianness : Big
  53. Codec ID : A_AC3
  54. Duration : 1h 28mn
  55. Bit rate mode : Constant
  56. Bit rate : 384 Kbps
  57. Channel(s) : 6 channels
  58. Channel positions : Front: L C R, Side: L R, LFE
  59. Sampling rate : 48.0 KHz
  60. Bit depth : 16 bits
  61. Compression mode : Lossy
  62. Stream size : 243 MiB (8%)
  63. Language : English
  64. Default : Yes
  65. Forced : No

  66. Text
  67. ID : 3
  68. Format : UTF-8
  69. Codec ID : S_TEXT/UTF8
  70. Codec ID/Info : UTF-8 Plain Text
  71. Language : English
  72. Default : Yes
  73. Forced : No

  74. Menu
  75. 00:00:00.000 : en:1
  76. 00:03:24.000 : en:2
  77. 00:13:05.000 : en:3
  78. 00:24:25.000 : en:4
  79. 00:35:41.000 : en:5
  80. 00:45:13.000 : en:6
  81. 00:57:56.000 : en:7
  82. 01:08:14.000 : en:8
  83. 01:14:27.000 : en:9
  84. 01:24:53.000 : en:10
复制代码
游客,如果您要查看本帖隐藏内容请回复,如不想回复请点击赞助VIP贵宾:https://item.taobao.com/item.htm?id=540849877691

回复

使用道具 举报

0

主题

3

好友

1万

积分

超级明星

Rank: 7Rank: 7Rank: 7

UID
57527
主题
0
金钱
9324
高清币
632
鲜花
0
阅读权限
90
QQ
QQ
最后登录
2018-9-19
发表于 2018-6-13 22:47:12 |显示全部楼层
每天都来中国高清论坛看看有什么电影!
回复

使用道具 举报

0

主题

0

好友

1万

积分

超级明星

Rank: 7Rank: 7Rank: 7

UID
334447
主题
0
金钱
5428
高清币
1144
鲜花
0
阅读权限
90
QQ
QQ
最后登录
2018-9-26
发表于 2018-6-13 22:50:46 手机频道 |显示全部楼层
感谢楼主分享精彩电影!
回复

使用道具 举报

0

主题

0

好友

1万

积分

好莱坞明星

Rank: 6Rank: 6

UID
927443
主题
0
金钱
3852
高清币
2049
鲜花
0
阅读权限
90
QQ
QQ
最后登录
2018-9-26
发表于 2018-6-13 22:51:37 |显示全部楼层
感谢楼主分享
回复

使用道具 举报

0

主题

0

好友

1万

积分

好莱坞明星

Rank: 6Rank: 6

UID
927443
主题
0
金钱
3852
高清币
2049
鲜花
0
阅读权限
90
QQ
QQ
最后登录
2018-9-26
发表于 2018-6-13 22:55:19 |显示全部楼层
感谢楼主分享
回复

使用道具 举报

1

主题

0

好友

5万

积分

永恒神话

Rank: 10Rank: 10Rank: 10

UID
911441
主题
1
金钱
20744
高清币
6449
鲜花
0
阅读权限
90
QQ
QQ
最后登录
2018-9-26
发表于 2018-6-13 23:00:10 |显示全部楼层
感谢分享精彩好电影!!!
回复

使用道具 举报

0

主题

0

好友

2240

积分

人气偶像

Rank: 3Rank: 3

UID
361884
主题
0
金钱
1432
高清币
8
鲜花
0
阅读权限
30
QQ
QQ
最后登录
2018-9-8
发表于 2018-6-13 23:01:05 |显示全部楼层
每天都来中国高清论坛看看有什么电影!
回复

使用道具 举报

0

主题

0

好友

2412

积分

人气偶像

Rank: 3Rank: 3

UID
859951
主题
0
金钱
1506
高清币
22
鲜花
0
阅读权限
30
QQ
QQ
最后登录
2018-9-26
发表于 2018-6-13 23:03:57 |显示全部楼层
其实我一直觉得楼主的品味不错!呵呵!
回复

使用道具 举报

0

主题

0

好友

6994

积分

金鸡奖主角

Rank: 5Rank: 5

UID
809637
主题
0
金钱
2424
高清币
1299
鲜花
0
阅读权限
70
QQ
QQ
最后登录
2018-9-24
发表于 2018-6-13 23:05:51 |显示全部楼层
每天都来中国高清论坛看看有什么电影!
回复

使用道具 举报

0

主题

0

好友

3万

积分

永恒神话

Rank: 10Rank: 10Rank: 10

UID
323346
主题
0
金钱
17269
高清币
4413
鲜花
0
阅读权限
90
QQ
QQ
最后登录
2018-9-26
发表于 2018-6-13 23:06:41 |显示全部楼层
谢楼主分享,有你更精彩
回复

使用道具 举报

期待您加入中国高清论坛QQ交流6群:20818254
 懒得打字嘛,点击右侧快捷回复【左侧自定义内容】  【右侧自定义内容】
您需要登录后才可以回帖 登录 | 立即注册

回顶部