请选择 进入手机版 | 继续访问电脑版

中国高清论坛

 找回密码
 立即注册
查看: 6282|回复: 874

[剧情片] 超玩妹社區[内嵌中文繁体字幕] Palm.Swings.2017.WEB-DL.1080p.H264.AAC.3.92G

  [复制链接]

156

主题

0

好友

4272

积分

龙行天下

Rank: 7Rank: 7Rank: 7

UID
360186
主题
156
金钱
1017
高清币
1514
鲜花
20
阅读权限
100
QQ
QQ
最后登录
2018-7-20
发表于 2018-7-8 14:13:00 |显示全部楼层
本帖最后由 临风回眸 于 2018-7-8 14:17 编辑

p2443815184.jpg
                                                                                                                                                                                                                                                                                                                                      ◎译  名 棕榈摆动/超玩妹社區                                             
◎片  名 Palm Swings
◎年  代 2016
◎产  地 美国
◎类  别 剧情/喜剧/爱情
◎语  言 英语
◎上映日期 2017-02-19(美国)
◎IMDb评分  4.5/10 from 240 users
◎IMDb链接  https://www.imdb.com/title/tt3465026/
◎豆瓣评分 4.2/10 from 250 users
◎豆瓣链接 https://movie.douban.com/subject/26992416/
◎片  长 95分钟
◎导  演 Sean Hoessli
◎主  演 舒格·林·彼尔德 Sugar Lyn Beard
      蒂亚·卡雷尔 Tia Carrere
      Jason Lewis
      戴安·法尔 Diane Farr

◎简  介

  一对年轻的夫妻刚刚搬到加州旅游圣地棕榈泉的社区,当他们发现邻居们个个都是玩很大的玩咖时,他们之间的感情也逐渐受到了考验……                                                                                                                                                                                                   棕榈摆动 超玩妹社區[内嵌中文繁体字幕] Palm.Swings.2017.WEB-DL.1080p.H264.AAC.mkv.jpg
棕榈摆动 超玩妹社區[内嵌中文繁体字幕] Palm.Swings.2017.WEB-DL.1080p.H264.AAC.mkv.jpg
棕榈摆动 超玩妹社區[内嵌中文繁体字幕] Palm.Swings.2017.WEB-DL.1080p.H264.AAC.mkv.jpg
棕榈摆动 超玩妹社區[内嵌中文繁体字幕] Palm.Swings.2017.WEB-DL.1080p.H264.AAC.mkv.jpg
棕榈摆动 超玩妹社區[内嵌中文繁体字幕] Palm.Swings.2017.WEB-DL.1080p.H264.AAC.mkv.jpg
棕榈摆动 超玩妹社區[内嵌中文繁体字幕] Palm.Swings.2017.WEB-DL.1080p.H264.AAC.mkv.jpg
                                                                                                                                                                                                                                                                                                                                  Palm.Swings.2017.WEB-DL.1080p.H264.AAC.mkvFormat
Format version                 : Version 4 / Version 2
File size                      : 3.93 GiB
Duration                       : 1 h 34 min
Overall bit rate               : 5 943 kb/s
Encoded date                   : UTC 2017-09-03 15:46:33
Writing application            : mkvmerge v9.5.0 ('Quiet Fire') 64bit
Writing library                : libebml v1.3.4 + libmatroska v1.4.5

Video
ID                             : 1
Format                         : AVC
Format/Info                    : Advanced Video Codec
Format profile                 : High@L4
Format settings                : CABAC / 3 Ref Frames
Format settings, CABAC         : Yes
Format settings, ReFrames      : 3 frames
Format settings, GOP           : M=1, N=30
Codec ID                       : V_MPEG4/ISO/AVC
Duration                       : 1 h 34 min
Bit rate                       : 5 872 kb/s
Width                          : 1 920 pixels
Height                         : 1 080 pixels
Display aspect ratio           : 16:9
Frame rate mode                : Constant
Frame rate                     : 30.000 FPS
Color space                    : YUV
Chroma subsampling             : 4:2:0
Bit depth                      : 8 bits
Scan type                      : Progressive
Bits/(Pixel*Frame)             : 0.094
Stream size                    : 3.88 GiB (99%)
Writing library                : x264 core 142 r2479 dd79a61
Encoding settings              : cabac=1 / ref=3 / deblock=1:0:0 / analyse=0x3:0x113 / me=hex / subme=7 / psy=1 / psy_rd=1.00:0.00 / mixed_ref=1 / me_range=16 / chroma_me=1 / trellis=1 / 8x8dct=1 / cqm=0 / deadzone=21,11 / fast_pskip=1 / chroma_qp_offset=-2 / threads=36 / lookahead_threads=6 / sliced_threads=0 / nr=0 / decimate=1 / interlaced=0 / bluray_compat=0 / constrained_intra=0 / bframes=0 / weightp=2 / keyint=30 / keyint_min=16 / scenecut=0 / intra_refresh=0 / rc_lookahead=30 / rc=abr / mbtree=1 / bitrate=5872 / ratetol=1.0 / qcomp=0.60 / qpmin=0 / qpmax=69 / qpstep=4 / vbv_maxrate=11744 / vbv_bufsize=11744 / nal_hrd=none / filler=0 / ip_ratio=1.40 / aq=1:1.00
Default                        : Yes
Forced                         : No

Audio
ID                             : 2
Format                         : AAC
Format/Info                    : Advanced Audio Codec
Format profile                 : LC
Codec ID                       : A_AAC-2
Duration                       : 1 h 34 min
Bit rate                       : 64.0 kb/s
Channel(s)                     : 2 channels
Channel positions              : Front: L R
Sampling rate                  : 48.0 kHz
Frame rate                     : 46.875 FPS (1024 SPF)
Compression mode               : Lossy
Stream size                    : 43.3 MiB (1%)
Default                        : Yes
Forced                         : No

   
游客,如果您要查看本帖隐藏内容请回复,如不想回复请点击赞助VIP贵宾:https://item.taobao.com/item.htm?id=540849877691
     

回复

使用道具 举报

0

主题

0

好友

3621

积分

天王巨星

Rank: 4

UID
48939
主题
0
金钱
2529
高清币
17
鲜花
0
阅读权限
50
QQ
QQ
最后登录
2018-7-19
发表于 2018-7-8 14:17:41 |显示全部楼层
每天都来中国高清论坛看看有什么电影!
回复

使用道具 举报

5

主题

31

好友

3万

积分

永恒神话

Rank: 10Rank: 10Rank: 10

UID
923120
主题
5
金钱
11628
高清币
8244
鲜花
0
阅读权限
90
QQ
QQ
最后登录
2018-7-18

天蝎座

发表于 2018-7-8 14:18:41 |显示全部楼层
每天都来中国高清论坛看看有什么电影!
回复

使用道具 举报

0

主题

0

好友

1万

积分

超级明星

Rank: 7Rank: 7Rank: 7

UID
177163
主题
0
金钱
8864
高清币
1527
鲜花
0
阅读权限
90
QQ
QQ
最后登录
2018-7-19
发表于 2018-7-8 14:18:55 |显示全部楼层
感谢楼主分享精彩电影!
回复

使用道具 举报

0

主题

0

好友

2万

积分

superstar

Rank: 9Rank: 9Rank: 9

UID
750064
主题
0
金钱
7223
高清币
4170
鲜花
0
阅读权限
90
QQ
QQ
最后登录
2018-7-19
发表于 2018-7-8 14:21:54 |显示全部楼层
每天都来中国高清论坛看看有什么电影!
回复

使用道具 举报

0

主题

0

好友

1251

积分

人气偶像

Rank: 3Rank: 3

UID
845446
主题
0
金钱
396
高清币
347
鲜花
0
阅读权限
30
QQ
QQ
最后登录
2018-7-13
发表于 2018-7-8 14:23:13 |显示全部楼层
333333333333
回复

使用道具 举报

1

主题

40

好友

14万

积分

永恒神话

Rank: 10Rank: 10Rank: 10

UID
196143
主题
1
金钱
56288
高清币
30040
鲜花
0
阅读权限
90
QQ
QQ
最后登录
2018-7-19
发表于 2018-7-8 14:29:20 |显示全部楼层
感谢楼主分享精彩电影!
回复

使用道具 举报

0

主题

0

好友

2251

积分

人气偶像

Rank: 3Rank: 3

UID
804386
主题
0
金钱
1395
高清币
17
鲜花
0
阅读权限
30
QQ
QQ
最后登录
2018-7-19
发表于 2018-7-8 14:31:18 |显示全部楼层
中国高清论坛很棒!
回复

使用道具 举报

0

主题

0

好友

1641

积分

人气偶像

Rank: 3Rank: 3

UID
926667
主题
0
金钱
577
高清币
265
鲜花
0
阅读权限
30
QQ
QQ
最后登录
2018-7-11
发表于 2018-7-8 14:32:15 |显示全部楼层
感谢楼主分享精彩电影!
回复

使用道具 举报

0

主题

0

好友

2657

积分

人气偶像

Rank: 3Rank: 3

UID
745202
主题
0
金钱
1642
高清币
7
鲜花
0
阅读权限
30
QQ
QQ
最后登录
2018-7-17
发表于 2018-7-8 14:35:45 |显示全部楼层
我看不错噢 谢谢楼主!
回复

使用道具 举报

期待您加入中国高清论坛QQ交流6群:20818254
 懒得打字嘛,点击右侧快捷回复【左侧自定义内容】  【右侧自定义内容】
您需要登录后才可以回帖 登录 | 立即注册

回顶部