请选择 进入手机版 | 继续访问电脑版

中国高清论坛

 找回密码
 立即注册
查看: 433|回复: 78

[动作片] 狂暴巨兽/末日困兽战(港)/毁灭大作战(台)/狂暴:世纪浩劫/狂暴/怪兽大破坏 Rampage.2018.2160p.BluRay.x264.8bit.SDR.DTS-HD.MA.TrueHD.7.1.Atmos-SWTYBLZ 60.99GB

  [复制链接]

1万

主题

0

好友

155万

积分

超级版主

Rank: 8Rank: 8

UID
610038
主题
10731
金钱
24381
高清币
758920
鲜花
2
阅读权限
150
QQ
QQ
最后登录
2018-9-23
发表于 2018-7-11 22:59:34 |显示全部楼层



◎译  名 狂暴巨兽/末日困兽战(港)/毁灭大作战(台)/狂暴:世纪浩劫/狂暴/怪兽大破坏
◎片  名 Rampage
◎年  代 2018
◎产  地 美国
◎类  别 动作/科幻/冒险
◎语  言 英语
◎上映日期 2018-04-13(美国)/2018-04-13(中国大陆)
◎IMDb评分  6.3/10 from 45,601 users
◎IMDb链接  http://www.imdb.com/title/tt2231461/
◎豆瓣评分 6.6/10 from 68,053 users
◎豆瓣链接 https://movie.douban.com/subject/26430636/
◎片  长 107分钟
◎导  演 布拉德·佩顿 Brad Peyton
◎主  演 道恩·强森 Dwayne Johnson
      娜奥米·哈里斯 Naomie Harris
      杰弗里·迪恩·摩根 Jeffrey Dean Morgan
      玛琳·阿克曼 Malin Akerman
      杰克·莱西 Jake Lacy
      乔·曼根尼罗 Joe Manganiello
      玛丽·谢尔顿 Marley Shelton
      P·J·伯恩 P.J. Byrne
      德米垂斯·格罗斯 Demetrius Grosse
      杰克·奎德 Jack Quaid
      布里安·希尔 Breanne Hill
      马特·杰拉德 Matt Gerald
      李威尹 Will Yun Lee
      尤里亚·费伯 Urijah Faber
      布鲁斯·布莱克希尔 Bruce Blackshear
      杰森·莱尔斯 Jason Liles
      马克·威尔斯 Mac Wells
      阿莉莎·布鲁克 Allyssa Brooke
      亚当·希泰凯尔 Adam Sztykiel
      加里·维克斯 Gary Weeks
      阿诺德·陈 Arnold Chun

◎简  介

  巨石强森饰演的灵长类动物学家一直与人类保持距离, 却跟极为聪明的银背大猩猩乔治有着深厚的感情。但是一次基因实验出错, 让这只温驯的大猩猩变成狂怒难驯的庞然巨兽。更可怕的是, 其他动物也发生了同样基因异变。他必须阻止这场全球性的灾难, 更重要是要拯救他的好友乔治。
  1. Video
  2. ID : 1
  3. Format : AVC
  4. Format/Info : Advanced Video Codec
  5. Format profile : High@L5.1
  6. Format settings : CABAC / 5 Ref Frames
  7. Format settings, CABAC : Yes
  8. Format settings, RefFrames : 5 frames
  9. Codec ID : V_MPEG4/ISO/AVC
  10. Duration : 1 h 47 min
  11. Bit rate : 73.0 Mb/s
  12. Width : 3 840 pixels
  13. Height : 1 600 pixels
  14. Display aspect ratio : 2.40:1
  15. Frame rate mode : Constant
  16. Frame rate : 23.976 (24000/1001) FPS
  17. Color space : YUV
  18. Chroma subsampling : 4:2:0
  19. Bit depth : 8 bits
  20. Scan type : Progressive
  21. Bits/(Pixel*Frame) : 0.496
  22. Stream size : 54.7 GiB (90%)
  23. Title : Rampage.2018.2160p.BluRay.x264.8bit.SDR.DTS-HD.MA.TrueHD.7.1.Atmos-SWTYBLZ
  24. Writing library : x264 core 155 r2901 7d0ff22
  25. Encoding settings : cabac=1 / ref=5 / deblock=1:-1:-1 / analyse=0x3:0x113 / me=umh / subme=10 / psy=1 / psy_rd=1.00:0.15 / mixed_ref=1 / me_range=48 / chroma_me=1 / trellis=2 / 8x8dct=1 / cqm=0 / deadzone=21,11 / fast_pskip=1 / chroma_qp_offset=-3 / threads=50 / lookahead_threads=4 / sliced_threads=0 / nr=0 / decimate=0 / interlaced=0 / bluray_compat=0 / constrained_intra=0 / bframes=3 / b_pyramid=2 / b_adapt=2 / b_bias=0 / direct=3 / weightb=1 / open_gop=0 / weightp=2 / keyint=250 / keyint_min=23 / scenecut=40 / intra_refresh=0 / rc_lookahead=50 / rc=crf / mbtree=1 / crf=18.0 / qcomp=0.60 / qpmin=0 / qpmax=69 / qpstep=4 / ip_ratio=1.40 / aq=1:1.00
  26. Default : Yes
  27. Forced : No

  28. Audio #1
  29. ID : 2
  30. Format : TrueHD
  31. Format profile : TrueHD+Atmos / TrueHD
  32. Codec ID : A_TRUEHD
  33. Duration : 1 h 47 min
  34. Bit rate mode : Variable
  35. Bit rate : 3 279 kb/s
  36. Maximum bit rate : 5 205 kb/s
  37. Channel(s) : Object Based / 8 channels
  38. Channel positions : Object Based / Front: L C R, Side: L R, Back: L R, LFE
  39. Sampling rate : / 48.0 kHz
  40. Frame rate : 1 200.000 FPS (40 SPF)
  41. Compression mode : Lossless
  42. Stream size : 2.46 GiB (4%)
  43. Title : Rampage.2018.2160p.BluRay.x264.8bit.SDR.DTS-HD.MA.TrueHD.7.1.Atmos-SWTYBLZ
  44. Language : English
  45. Default : Yes
  46. Forced : No

  47. Audio #2
  48. ID : 3
  49. Format : DTS
  50. Format/Info : Digital Theater Systems
  51. Format profile : MA / Core
  52. Codec ID : A_DTS
  53. Duration : 1 h 47 min
  54. Bit rate mode : Variable / Constant
  55. Bit rate : 4 013 kb/s / 1 509 kb/s
  56. Channel(s) : 8 channels / 6 channels
  57. Channel positions : Front: L C R, Side: L R, Back: L R, LFE / Front: L C R, Side: L R, LFE
  58. Sampling rate : 48.0 kHz
  59. Frame rate : 93.750 FPS (512 SPF)
  60. Bit depth : 24 bits
  61. Compression mode : Lossless / Lossy
  62. Stream size : 3.01 GiB (5%)
  63. Title : Rampage.2018.2160p.BluRay.x264.8bit.SDR.DTS-HD.MA.TrueHD.7.1.Atmos-SWTYBLZ
  64. Language : English
  65. Default : No
  66. Forced : No

  67. Audio #3
  68. ID : 4
  69. Format : AC-3
  70. Format/Info : Audio Coding 3
  71. Codec ID : A_AC3
  72. Duration : 1 h 47 min
  73. Bit rate mode : Constant
  74. Bit rate : 448 kb/s
  75. Channel(s) : 6 channels
  76. Channel positions : Front: L C R, Side: L R, LFE
  77. Sampling rate : 48.0 kHz
  78. Frame rate : 31.250 FPS (1536 SPF)
  79. Bit depth : 16 bits
  80. Compression mode : Lossy
  81. Stream size : 344 MiB (1%)
  82. Title : Rampage.2018.2160p.BluRay.x264.8bit.SDR.DTS-HD.MA.TrueHD.7.1.Atmos-SWTYBLZ
  83. Language : English
  84. Service kind : Complete Main
  85. Default : No
  86. Forced : No

  87. Text #1
  88. ID : 5
  89. Format : UTF-8
  90. Codec ID : S_TEXT/UTF8
  91. Codec ID/Info : UTF-8 Plain Text
  92. Duration : 1 h 37 min
  93. Bit rate : 55 b/s
  94. Count of elements : 1257
  95. Stream size : 39.8 KiB (0%)
  96. Title : English-SRT
  97. Language : English
  98. Default : Yes
  99. Forced : No

  100. Text #2
  101. ID : 6
  102. Format : PGS
  103. Muxing mode : zlib
  104. Codec ID : S_HDMV/PGS
  105. Codec ID/Info : Picture based subtitle format used on BDs/HD-DVDs
  106. Duration : 1 h 45 min
  107. Bit rate : 34.6 kb/s
  108. Count of elements : 3088
  109. Stream size : 26.1 MiB (0%)
  110. Title : English-PGS
  111. Language : English
  112. Default : No
  113. Forced : No

  114. Text #3
  115. ID : 7
  116. Format : PGS
  117. Muxing mode : zlib
  118. Codec ID : S_HDMV/PGS
  119. Codec ID/Info : Picture based subtitle format used on BDs/HD-DVDs
  120. Duration : 1 h 46 min
  121. Bit rate : 23.0 kb/s
  122. Count of elements : 2374
  123. Stream size : 17.5 MiB (0%)
  124. Title : French-PGS
  125. Language : French
  126. Default : No
  127. Forced : No

  128. Text #4
  129. ID : 8
  130. Format : PGS
  131. Muxing mode : zlib
  132. Codec ID : S_HDMV/PGS
  133. Codec ID/Info : Picture based subtitle format used on BDs/HD-DVDs
  134. Duration : 1 h 38 min
  135. Bit rate : 18.4 kb/s
  136. Count of elements : 2278
  137. Stream size : 13.0 MiB (0%)
  138. Title : Japanese-PGS
  139. Language : Japanese
  140. Default : No
  141. Forced : No

  142. Text #5
  143. ID : 9
  144. Format : PGS
  145. Muxing mode : zlib
  146. Codec ID : S_HDMV/PGS
  147. Codec ID/Info : Picture based subtitle format used on BDs/HD-DVDs
  148. Duration : 1 h 10 min
  149. Bit rate : 780 b/s
  150. Count of elements : 260
  151. Stream size : 402 KiB (0%)
  152. Title : Japanese-PGS
  153. Language : Japanese
  154. Default : No
  155. Forced : No

  156. Text #6
  157. ID : 10
  158. Format : PGS
  159. Muxing mode : zlib
  160. Codec ID : S_HDMV/PGS
  161. Codec ID/Info : Picture based subtitle format used on BDs/HD-DVDs
  162. Duration : 1 h 46 min
  163. Bit rate : 26.2 kb/s
  164. Count of elements : 2398
  165. Stream size : 20.0 MiB (0%)
  166. Title : Chinese-PGS
  167. Language : Chinese
  168. Default : No
  169. Forced : No

  170. Text #7
  171. ID : 11
  172. Format : PGS
  173. Muxing mode : zlib
  174. Codec ID : S_HDMV/PGS
  175. Codec ID/Info : Picture based subtitle format used on BDs/HD-DVDs
  176. Duration : 1 h 47 min
  177. Bit rate : 30.8 kb/s
  178. Count of elements : 3018
  179. Stream size : 23.6 MiB (0%)
  180. Title : Chinese-PGS
  181. Language : Chinese
  182. Default : No
  183. Forced : No

  184. Text #8
  185. ID : 12
  186. Format : PGS
  187. Muxing mode : zlib
  188. Codec ID : S_HDMV/PGS
  189. Codec ID/Info : Picture based subtitle format used on BDs/HD-DVDs
  190. Duration : 1 h 46 min
  191. Bit rate : 25.8 kb/s
  192. Count of elements : 2574
  193. Stream size : 19.7 MiB (0%)
  194. Title : Chinese-PGS
  195. Language : Chinese
  196. Default : No
  197. Forced : No

  198. Text #9
  199. ID : 13
  200. Format : PGS
  201. Muxing mode : zlib
  202. Codec ID : S_HDMV/PGS
  203. Codec ID/Info : Picture based subtitle format used on BDs/HD-DVDs
  204. Duration : 1 h 46 min
  205. Bit rate : 17.8 kb/s
  206. Count of elements : 2534
  207. Stream size : 13.6 MiB (0%)
  208. Title : Korean-PGS
  209. Language : Korean
  210. Default : No
  211. Forced : No

  212. Text #10
  213. ID : 14
  214. Format : PGS
  215. Muxing mode : zlib
  216. Codec ID : S_HDMV/PGS
  217. Codec ID/Info : Picture based subtitle format used on BDs/HD-DVDs
  218. Duration : 1 h 46 min
  219. Bit rate : 28.1 kb/s
  220. Count of elements : 2552
  221. Stream size : 21.4 MiB (0%)
  222. Title : Spanish-PGS
  223. Language : Spanish
  224. Default : No
  225. Forced : No

  226. Text #11
  227. ID : 15
  228. Format : PGS
  229. Muxing mode : zlib
  230. Codec ID : S_HDMV/PGS
  231. Codec ID/Info : Picture based subtitle format used on BDs/HD-DVDs
  232. Duration : 1 h 46 min
  233. Bit rate : 26.3 kb/s
  234. Count of elements : 2562
  235. Stream size : 20.1 MiB (0%)
  236. Title : Portuguese-PGS
  237. Language : Portuguese
  238. Default : No
  239. Forced : No

  240. Text #12
  241. ID : 16
  242. Format : PGS
  243. Muxing mode : zlib
  244. Codec ID : S_HDMV/PGS
  245. Codec ID/Info : Picture based subtitle format used on BDs/HD-DVDs
  246. Duration : 1 h 46 min
  247. Bit rate : 15.7 kb/s
  248. Count of elements : 2602
  249. Stream size : 12.0 MiB (0%)
  250. Title : Arabic-PGS
  251. Language : Arabic
  252. Default : No
  253. Forced : No

  254. Text #13
  255. ID : 17
  256. Format : PGS
  257. Muxing mode : zlib
  258. Codec ID : S_HDMV/PGS
  259. Codec ID/Info : Picture based subtitle format used on BDs/HD-DVDs
  260. Duration : 1 h 46 min
  261. Bit rate : 22.2 kb/s
  262. Count of elements : 2588
  263. Stream size : 17.0 MiB (0%)
  264. Title : Hebrew-PGS
  265. Language : Hebrew
  266. Default : No
  267. Forced : No

  268. Text #14
  269. ID : 18
  270. Format : PGS
  271. Muxing mode : zlib
  272. Codec ID : S_HDMV/PGS
  273. Codec ID/Info : Picture based subtitle format used on BDs/HD-DVDs
  274. Duration : 1 h 46 min
  275. Bit rate : 29.4 kb/s
  276. Count of elements : 2586
  277. Stream size : 22.5 MiB (0%)
  278. Title : Russian-PGS
  279. Language : Russian
  280. Default : No
  281. Forced : No

  282. Text #15
  283. ID : 19
  284. Format : PGS
  285. Muxing mode : zlib
  286. Codec ID : S_HDMV/PGS
  287. Codec ID/Info : Picture based subtitle format used on BDs/HD-DVDs
  288. Duration : 1 h 46 min
  289. Bit rate : 28.7 kb/s
  290. Count of elements : 2600
  291. Stream size : 21.9 MiB (0%)
  292. Title : Thai-PGS
  293. Language : Thai
  294. Default : No
  295. Forced : No

  296. Text #16
  297. ID : 20
  298. Format : PGS
  299. Muxing mode : zlib
  300. Codec ID : S_HDMV/PGS
  301. Codec ID/Info : Picture based subtitle format used on BDs/HD-DVDs
  302. Duration : 1 h 46 min
  303. Bit rate : 28.4 kb/s
  304. Count of elements : 2586
  305. Stream size : 21.6 MiB (0%)
  306. Title : Turkish-PGS
  307. Language : Turkish
  308. Default : No
  309. Forced : No

  310. Text #17
  311. ID : 21
  312. Format : PGS
  313. Muxing mode : zlib
  314. Codec ID : S_HDMV/PGS
  315. Codec ID/Info : Picture based subtitle format used on BDs/HD-DVDs
  316. Duration : 1 h 46 min
  317. Bit rate : 655 b/s
  318. Count of elements : 38
  319. Stream size : 512 KiB (0%)
  320. Title : French-FORCED-PGS
  321. Language : French
  322. Default : No
  323. Forced : No

  324. Text #18
  325. ID : 22
  326. Format : PGS
  327. Muxing mode : zlib
  328. Codec ID : S_HDMV/PGS
  329. Codec ID/Info : Picture based subtitle format used on BDs/HD-DVDs
  330. Duration : 1 h 47 min
  331. Bit rate : 1 866 b/s
  332. Count of elements : 148
  333. Stream size : 1.43 MiB (0%)
  334. Title : Chinese-FORCED-PGS
  335. Language : Chinese
  336. Default : No
  337. Forced : No

  338. Text #19
  339. ID : 23
  340. Format : PGS
  341. Muxing mode : zlib
  342. Codec ID : S_HDMV/PGS
  343. Codec ID/Info : Picture based subtitle format used on BDs/HD-DVDs
  344. Duration : 1 h 46 min
  345. Bit rate : 837 b/s
  346. Count of elements : 56
  347. Stream size : 655 KiB (0%)
  348. Title : Spanish-FORCED-PGS
  349. Language : Spanish
  350. Default : No
  351. Forced : No

  352. Text #20
  353. ID : 24
  354. Format : PGS
  355. Muxing mode : zlib
  356. Codec ID : S_HDMV/PGS
  357. Codec ID/Info : Picture based subtitle format used on BDs/HD-DVDs
  358. Duration : 1 h 44 min
  359. Bit rate : 283 b/s
  360. Count of elements : 28
  361. Stream size : 216 KiB (0%)
  362. Title : Portuguese-FORCED-PGS
  363. Language : Portuguese
  364. Default : No
  365. Forced : No

  366. Text #21
  367. ID : 25
  368. Format : PGS
  369. Muxing mode : zlib
  370. Codec ID : S_HDMV/PGS
  371. Codec ID/Info : Picture based subtitle format used on BDs/HD-DVDs
  372. Duration : 1 h 46 min
  373. Bit rate : 1 023 b/s
  374. Count of elements : 70
  375. Stream size : 800 KiB (0%)
  376. Title : Russian-FORCED-PGS
  377. Language : Russian
  378. Default : No
  379. Forced : No

  380. Text #22
  381. ID : 26
  382. Format : PGS
  383. Muxing mode : zlib
  384. Codec ID : S_HDMV/PGS
  385. Codec ID/Info : Picture based subtitle format used on BDs/HD-DVDs
  386. Duration : 1 h 45 min
  387. Bit rate : 442 b/s
  388. Count of elements : 46
  389. Stream size : 343 KiB (0%)
  390. Title : Thai-FORCED-PGS
  391. Language : Thai
  392. Default : No
  393. Forced : No

  394. Text #23
  395. ID : 27
  396. Format : PGS
  397. Muxing mode : zlib
  398. Codec ID : S_HDMV/PGS
  399. Codec ID/Info : Picture based subtitle format used on BDs/HD-DVDs
  400. Duration : 1 h 46 min
  401. Bit rate : 776 b/s
  402. Count of elements : 60
  403. Stream size : 607 KiB (0%)
  404. Title : Turkish-FORCED-PGS
  405. Language : Turkish
  406. Default : No
  407. Forced : No

  408. Menu
  409. 00:00:00.000 : en:Chapter 1
  410. 00:12:58.527 : en:Chapter 2
  411. 00:19:56.278 : en:Chapter 3
  412. 00:29:53.291 : en:Chapter 4
  413. 00:40:35.391 : en:Chapter 5
  414. 00:49:10.906 : en:Chapter 6
  415. 01:02:38.171 : en:Chapter 7
  416. 01:10:37.650 : en:Chapter 8
  417. 01:20:10.472 : en:Chapter 9
  418. 01:29:23.608 : en:Chapter 10
复制代码








游客,如果您要查看本帖隐藏内容请回复,如不想回复请点击赞助VIP贵宾:https://item.taobao.com/item.htm?id=540849877691



回复

使用道具 举报

0

主题

0

好友

340

积分

知名艺人

Rank: 2

UID
921994
主题
0
金钱
175
高清币
26
鲜花
0
阅读权限
20
QQ
QQ
最后登录
2018-9-22
发表于 2018-7-11 23:02:27 |显示全部楼层
我看不错噢 谢谢楼主!
回复

使用道具 举报

0

主题

0

好友

8403

积分

金鸡奖主角

Rank: 5Rank: 5

UID
441110
主题
0
金钱
5104
高清币
423
鲜花
0
阅读权限
70
QQ
QQ
最后登录
2018-9-23
发表于 2018-7-11 23:10:24 |显示全部楼层
感谢楼主分享精彩电影!
回复

使用道具 举报

1

主题

0

好友

5万

积分

永恒神话

Rank: 10Rank: 10Rank: 10

UID
911441
主题
1
金钱
20485
高清币
6417
鲜花
0
阅读权限
90
QQ
QQ
最后登录
2018-9-23
发表于 2018-7-11 23:27:47 |显示全部楼层
感谢分享精彩好电影!!!
回复

使用道具 举报

0

主题

0

好友

20

积分

跑龙套

Rank: 1

UID
934838
主题
0
金钱
8
高清币
4
鲜花
0
阅读权限
10
QQ
QQ
最后登录
2018-7-12
发表于 2018-7-11 23:30:39 |显示全部楼层
萝莉福利资源,不看别后悔:
http://75eo.com/portal.php?x=68210
回复

使用道具 举报

0

主题

0

好友

1036

积分

人气偶像

Rank: 3Rank: 3

UID
538570
主题
0
金钱
486
高清币
87
鲜花
0
阅读权限
30
QQ
QQ
最后登录
2018-9-19
发表于 2018-7-12 00:54:52 |显示全部楼层
感谢楼主分享
回复

使用道具 举报

0

主题

18

好友

20万

积分

永恒神话

Rank: 10Rank: 10Rank: 10

UID
742887
主题
0
金钱
73205
高清币
41392
鲜花
0
阅读权限
90
QQ
QQ
最后登录
2018-9-23
发表于 2018-7-12 00:57:35 |显示全部楼层
楼主分享的高清电影太好了!
回复

使用道具 举报

0

主题

18

好友

20万

积分

永恒神话

Rank: 10Rank: 10Rank: 10

UID
742887
主题
0
金钱
73205
高清币
41392
鲜花
0
阅读权限
90
QQ
QQ
最后登录
2018-9-23
发表于 2018-7-12 00:57:56 |显示全部楼层
既然你诚信诚意的推荐了,那我就勉为其难的看看吧!
回复

使用道具 举报

2

主题

0

好友

9112

积分

金鸡奖主角

Rank: 5Rank: 5

UID
418807
主题
2
金钱
4690
高清币
1131
鲜花
0
阅读权限
70
QQ
QQ
最后登录
2018-9-23
发表于 2018-7-12 02:48:47 |显示全部楼层
其实我一直觉得楼主的品味不错!呵呵!
回复

使用道具 举报

0

主题

0

好友

289

积分

知名艺人

Rank: 2

UID
893650
主题
0
金钱
180
高清币
1
鲜花
0
阅读权限
20
QQ
QQ
最后登录
2018-9-18
发表于 2018-7-12 04:22:13 |显示全部楼层
111111111111111111111111
回复

使用道具 举报

期待您加入中国高清论坛QQ交流6群:20818254
 懒得打字嘛,点击右侧快捷回复【左侧自定义内容】  【右侧自定义内容】
您需要登录后才可以回帖 登录 | 立即注册

回顶部