请选择 进入手机版 | 继续访问电脑版

中国高清论坛

 找回密码
 立即注册
查看: 4414|回复: 699

[动作片] 黄飞鸿之南北英雄/黄飞鸿之生化人[国粤双语/中字] The.Unity.Of.Heroes.2018.CHINESE.1080p.BluRay.x264.DD5.1-CHD 7.01GB

  [复制链接]

1万

主题

0

好友

162万

积分

超级版主

太空怪人

Rank: 8Rank: 8

UID
610038
主题
11662
金钱
26322
高清币
792588
鲜花
2
阅读权限
150
QQ
QQ
最后登录
2018-10-16
发表于 2018-8-4 21:35:00 |显示全部楼层
本帖最后由 ccbby 于 2018-8-4 22:05 编辑

a6a18d0828f5e5306b18ca21afadae3a44a29318.jpg


◎译  名 黄飞鸿之生化人
◎片  名 黄飞鸿之南北英雄
◎年  代 2018
◎产  地 中国大陆
◎类  别 动作/武侠
◎语  言 汉语普通话
◎上映日期 2018-05-18(中国大陆)
◎豆瓣评分 4.7/10 from 3,489 users
◎豆瓣链接 https://movie.douban.com/subject/30207949/
◎片  长 104分钟
◎导  演 林珍钊 Zhenzhao Lin
◎主  演 赵文卓 Man Cheuk Chiu
      唐文龙 Michael Tong
      维妮 Ni Wei
      李璐兵 Lubing Li
      陈辰 Chen Chen
      李炳渊 Bingyuan Li
      魏小欢 Xiaohuan Wei
      许政国 Zhengguo Xu

◎简  介

  晚清时期,外来入侵,国家内忧外患,民不聊生。黄飞鸿(赵文卓 饰)面对列强的压迫,依旧弘扬中国文化,保护民族信仰,与外来者的打击坚持抗争。在这样一个社会动荡的时期,北拳宗师吴镇南(唐文龙 饰),初入佛山北拳南传,却屡屡碰壁,面对黄飞鸿的盛情款待,吴镇南却不愿接受他的帮助。就在这个时候,洋人趁火打劫,把药品研究用在了吴镇南身上,导致两人矛盾再度激化,面对洋人的利用和威胁,吴镇南不得不和黄飞鸿展开激烈的一战。被洋人雇佣来协助研究项目的女孩路小月(魏小欢 饰)在秘密研究项目中也慢慢了解到洋人的残暴实验,渐渐地看清了洋人计划,危险一触即发……

  1. Video
  2. ID : 1
  3. Format : AVC
  4. Format/Info : Advanced Video Codec
  5. Format profile : High@L4.1
  6. Format settings : CABAC / 4 Ref Frames
  7. Format settings, CABAC : Yes
  8. Format settings, ReFrames : 4 frames
  9. Codec ID : V_MPEG4/ISO/AVC
  10. Duration : 1 h 43 min
  11. Bit rate : 8 373 kb/s
  12. Width : 1 920 pixels
  13. Height : 836 pixels
  14. Display aspect ratio : 2.25:1
  15. Frame rate mode : Constant
  16. Frame rate : 25.000 FPS
  17. Color space : YUV
  18. Chroma subsampling : 4:2:0
  19. Bit depth : 8 bits
  20. Scan type : Progressive
  21. Bits/(Pixel*Frame) : 0.209
  22. Stream size : 6.06 GiB (87%)
  23. Writing library : x264 core 155 r2867+74 66b5600 t_mod_Custom_2 [8-bit@all X86_64]
  24. Encoding settings : cabac=1 / ref=4 / deblock=1:-3:-3 / analyse=0x3:0x113 / me=umh / subme=10 / psy=1 / fade_compensate=0.00 / psy_rd=0.90:0.10 / mixed_ref=1 / me_range=48 / chroma_me=1 / trellis=2 / 8x8dct=1 / cqm=0 / deadzone=21,11 / fast_pskip=0 / chroma_qp_offset=-2 / threads=18 / lookahead_threads=3 / sliced_threads=0 / nr=0 / decimate=1 / interlaced=0 / bluray_compat=0 / constrained_intra=0 / fgo=0 / bframes=8 / b_pyramid=2 / b_adapt=2 / b_bias=0 / direct=3 / weightb=1 / open_gop=0 / weightp=2 / keyint=250 / keyint_min=25 / scenecut=40 / intra_refresh=0 / rc_lookahead=40 / rc=crf / mbtree=0 / crf=18.0000 / qcomp=0.70 / qpmin=0:0:0 / qpmax=69:69:69 / qpstep=4 / vbv_maxrate=35000 / vbv_bufsize=35000 / crf_max=0.0 / nal_hrd=none / filler=0 / ip_ratio=1.40 / pb_ratio=1.30 / aq=3:0.90 / aq-sensitivity=10.00 / aq-factor=1.00:1.00:1.00 / aq2=0 / aq3=2:[0.50:0.50]:[0.50:0.50]:[0.50:0.50]:[0.50:0.50] / aq3-sensitivity=10.00 / aq3-factor=[1.00:1.00]:[1.00:1.00]:[1.00:1.00] / aq3-boundary=192:64:24
  25. Language : Chinese
  26. Default : Yes
  27. Forced : No
  28. Color range : Limited
  29. Matrix coefficients : BT.709

  30. Audio #1
  31. ID : 2
  32. Format : AC-3
  33. Format/Info : Audio Coding 3
  34. Codec ID : A_AC3
  35. Duration : 1 h 43 min
  36. Bit rate mode : Constant
  37. Bit rate : 640 kb/s
  38. Channel(s) : 6 channels
  39. Channel positions : Front: L C R, Side: L R, LFE
  40. Sampling rate : 48.0 kHz
  41. Frame rate : 31.250 FPS (1536 SPF)
  42. Bit depth : 16 bits
  43. Compression mode : Lossy
  44. Stream size : 474 MiB (7%)
  45. Language : Chinese
  46. Service kind : Complete Main
  47. Default : Yes
  48. Forced : No

  49. Audio #2
  50. ID : 3
  51. Format : AC-3
  52. Format/Info : Audio Coding 3
  53. Codec ID : A_AC3
  54. Duration : 1 h 43 min
  55. Bit rate mode : Constant
  56. Bit rate : 640 kb/s
  57. Channel(s) : 6 channels
  58. Channel positions : Front: L C R, Side: L R, LFE
  59. Sampling rate : 48.0 kHz
  60. Frame rate : 31.250 FPS (1536 SPF)
  61. Bit depth : 16 bits
  62. Compression mode : Lossy
  63. Stream size : 474 MiB (7%)
  64. Language : Chinese
  65. Service kind : Complete Main
  66. Default : No
  67. Forced : No

  68. Text #1
  69. ID : 4
  70. Format : PGS
  71. Muxing mode : zlib
  72. Codec ID : S_HDMV/PGS
  73. Codec ID/Info : Picture based subtitle format used on BDs/HD-DVDs
  74. Duration : 1 h 36 min
  75. Bit rate : 28.7 kb/s
  76. Count of elements : 2402
  77. Stream size : 19.8 MiB (0%)
  78. Language : Chinese
  79. Default : Yes
  80. Forced : No

  81. Text #2
  82. ID : 5
  83. Format : PGS
  84. Muxing mode : zlib
  85. Codec ID : S_HDMV/PGS
  86. Codec ID/Info : Picture based subtitle format used on BDs/HD-DVDs
  87. Duration : 1 h 36 min
  88. Bit rate : 29.3 kb/s
  89. Count of elements : 2402
  90. Stream size : 20.2 MiB (0%)
  91. Language : Chinese
  92. Default : No
  93. Forced : No

  94. Menu
  95. 00:00:00.000 : en:00:00:00.000
  96. 00:09:21.000 : en:00:09:21.000
  97. 00:17:48.960 : en:00:17:48.960
  98. 00:26:09.360 : en:00:26:09.360
  99. 00:32:44.560 : en:00:32:44.560
  100. 00:42:45.840 : en:00:42:45.840
  101. 00:50:42.320 : en:00:50:42.320
  102. 00:59:15.040 : en:00:59:15.040
  103. 01:10:36.600 : en:01:10:36.600
  104. 01:17:17.640 : en:01:17:17.640
  105. 01:26:05.240 : en:01:26:05.240
  106. 01:36:09.960 : en:01:36:09.960
复制代码
游客,如果您要查看本帖隐藏内容请回复,如不想回复请点击赞助VIP贵宾:https://item.taobao.com/item.htm?id=540849877691

回复

使用道具 举报

0

主题

0

好友

1671

积分

人气偶像

Rank: 3Rank: 3

UID
919373
主题
0
金钱
972
高清币
13
鲜花
0
阅读权限
30
QQ
QQ
最后登录
2018-10-10
发表于 2018-8-4 21:36:31 手机频道 |显示全部楼层
楼主分享的高清电影太好了!
回复

使用道具 举报

0

主题

0

好友

9392

积分

金鸡奖主角

Rank: 5Rank: 5

UID
185244
主题
0
金钱
6051
高清币
206
鲜花
0
阅读权限
70
QQ
QQ
最后登录
2018-10-13
发表于 2018-8-4 21:38:50 |显示全部楼层
感谢楼主分享精彩电影!
回复

使用道具 举报

4

主题

0

好友

3万

积分

永恒神话

Rank: 10Rank: 10Rank: 10

UID
347222
主题
4
金钱
12548
高清币
3893
鲜花
0
阅读权限
90
QQ
QQ
最后登录
2018-10-16
发表于 2018-8-4 21:40:35 |显示全部楼层
感谢楼主分享精彩电影!
回复

使用道具 举报

1

主题

0

好友

8007

积分

金鸡奖主角

Rank: 5Rank: 5

UID
67296
主题
1
金钱
3450
高清币
1143
鲜花
0
阅读权限
70
QQ
QQ
最后登录
2018-10-11
发表于 2018-8-4 21:40:55 |显示全部楼层
中国高清论坛很棒!
回复

使用道具 举报

0

主题

3

好友

7879

积分

金鸡奖主角

Rank: 5Rank: 5

UID
133134
主题
0
金钱
4861
高清币
772
鲜花
0
阅读权限
70
QQ
QQ
最后登录
2018-10-15
发表于 2018-8-4 21:41:51 |显示全部楼层
每天都来中国高清论坛看看有什么电影!
回复

使用道具 举报

73

主题

0

好友

1万

积分

高清发布组

Rank: 7Rank: 7Rank: 7

UID
312164
主题
73
金钱
975
高清币
7021
鲜花
0
阅读权限
100
最后登录
2018-10-16

射手座

发表于 2018-8-4 21:41:59 |显示全部楼层
中国高清论坛很棒!
回复

使用道具 举报

0

主题

0

好友

52

积分

禁止访问

UID
937204
主题
0
金钱
16
高清币
12
鲜花
0
阅读权限
0
QQ
QQ
最后登录
2018-8-5
发表于 2018-8-4 21:42:29 |显示全部楼层
提示: 作者被禁止或删除 内容自动屏蔽
回复

使用道具 举报

0

主题

0

好友

1923

积分

人气偶像

Rank: 3Rank: 3

UID
121509
主题
0
金钱
1185
高清币
5
鲜花
0
阅读权限
30
QQ
QQ
最后登录
2018-10-3
发表于 2018-8-4 21:42:39 |显示全部楼层
ddddddddddddddddddddddd
回复

使用道具 举报

1

主题

2

好友

1万

积分

好莱坞明星

Rank: 6Rank: 6

UID
50881
主题
1
金钱
7473
高清币
169
鲜花
0
阅读权限
90
QQ
QQ
最后登录
2018-10-16
发表于 2018-8-4 21:42:50 |显示全部楼层
多谢分享了
回复

使用道具 举报

期待您加入中国高清论坛QQ交流6群:20818254
 懒得打字嘛,点击右侧快捷回复【左侧自定义内容】  【右侧自定义内容】
您需要登录后才可以回帖 登录 | 立即注册

回顶部