请选择 进入手机版 | 继续访问电脑版

中国高清论坛

 找回密码
 立即注册
查看: 9|回复: 4

[其 他] [补档] [IMDB 7.1分] [豆瓣 8.1分] 欢乐好声音 Sing.2016.2160p.BluRay.x264.8bit.SDR.DTS-HD.MA.TrueHD.7.1.Atmos-SWTYBLZ 39.81GB [美国] [喜剧/动画/歌舞]

[复制链接]
匿名
匿名  发表于 5 天前
游客,如果您要查看本帖隐藏内容请回复,如不想回复请点击赞助VIP贵宾:https://item.taobao.com/item.htm?id=540849877691



◎译  名 欢乐好声音/星梦动物园(港)/歌唱秀/演唱/歌唱/动物园好声音
◎片  名 Sing
◎年  代 2016
◎产  地 美国
◎类  别 喜剧/动画/歌舞
◎语  言 英语/日语
◎上映日期 2016-09-11(多伦多电影节)/2016-12-21(美国)/2017-02-17(中国大陆)
◎IMDb评分 7.1/10 from 101,387 users
◎IMDb链接 http://www.imdb.com/title/tt3470600/
◎豆瓣评分 8.1/10 from 144,082 users
◎豆瓣链接 https://movie.douban.com/subject/26354572/
◎片  长 108分钟
◎导  演 加斯·詹宁斯 Garth Jennings/克里斯托夫·卢尔德莱 Christophe Lourdelet
◎主  演 马修·麦康纳 Matthew McConaughey
      瑞茜·威瑟斯彭 Reese Witherspoon
      塞思·麦克法兰 Seth MacFarlane
      斯嘉丽·约翰逊 Scarlett Johansson
      约翰·C·赖利 John C. Reilly
      塔伦·埃格顿 Taron Egerton
      托瑞·凯利 Tori Kelly
      珍妮弗·桑德斯 Jennifer Saunders
      詹妮弗·哈德森 Jennifer Hudson
      加斯·詹宁斯 Garth Jennings
      彼得·塞拉菲诺威茨 Peter Serafinowicz
      尼克·克罗尔 Nick Kroll
      贝克·班尼特 Beck Bennett
      杰·费罗尔 Jay Pharoah
      尼克·奥弗曼 Nick Offerman
      莱斯莉·琼斯 Leslie Jones
      雷亚·普尔曼 Rhea Perlman
      亚当·布克斯顿 Adam Buxton
      比尔·法玛尔 Bill Farmer


◎简  介 

  曾拥有过辉煌风光年代的一家歌剧院正逐步走向没落,更面临被银行抵押没收的命运。现任老板考拉巴斯特(马修·麦康纳希 Matthew McConaughey 配音)不愿见父亲毕生的心血就此终结,于是决定策划一场歌唱选秀比赛,却没留神把奖金印成了他根本无力承担的10万美元。受到奖金和歌唱梦想的鼓舞,猪妈妈罗茜塔(瑞茜·威瑟斯彭 Reese Witherspoon 饰)、少女豪猪艾什(斯嘉丽·约翰森 Scarlett Johansson 饰)、老鼠歌手麦克(塞斯·麦克法兰 Seth MacFarlane 饰)、害羞的小象米纳(托瑞·凯利Tori Kelly 饰)、大猩猩强尼(塔伦·埃格顿 Taron Egerton  饰)等音乐爱好者都纷纷前来应征。
  他们有着各自难以逾越的障碍,而为了各自的梦想,有竭尽全力,追逐哪怕一点点微茫的希望……


◎获  奖 

  第74届金球奖  (2017)
  电影类最佳动画长片(提名)
  电影类最佳原创歌曲(提名)
  
  第44届动画安妮奖  (2017)
  最佳配乐(提名)
  
  第4届豆瓣电影年度榜单  (2017)
  评分最高的动画片(提名)
  2月最受关注电影(提名)

  1. SWEATY BALLZ presents

  2. Sing.2016.2160p.BluRay.x264.8bit.SDR.DTS-HD.MA.TrueHD.7.1.Atmos-SWTYBLZ

  3. Converted from 10 bit HDR to 8 bit SDR using tripple mixed Hable-Reinhard-JJ per scene+frame analysis algorithm

  4.       


  5. Video
  6. ID : 1
  7. Format : AVC
  8. Format/Info : Advanced Video Codec
  9. Format profile : High@L5.1
  10. Format settings, CABAC : Yes
  11. Format settings, ReFrames : 5 frames
  12. Codec ID : V_MPEG4/ISO/AVC
  13. Duration : 1 h 47 min
  14. Bit rate : 42.7 Mb/s
  15. Width : 3 840 pixels
  16. Height : 2 076 pixels
  17. Display aspect ratio : 1.85:1
  18. Frame rate mode : Constant
  19. Frame rate : 23.976 (24000/1001) FPS
  20. Color space : YUV
  21. Chroma subsampling : 4:2:0
  22. Bit depth : 8 bits
  23. Scan type : Progressive
  24. Bits/(Pixel*Frame) : 0.223
  25. Stream size : 32.2 GiB (82%)
  26. Title : Sing.2016.2160p.BluRay.x264.8bit.SDR.DTS-HD.MA.TrueHD.7.1.Atmos-SWTYBLZ
  27. Writing library : x264 core 148 r2748 97eaef2
  28. Encoding settings : cabac=1 / ref=5 / deblock=1:-1:-1 / analyse=0x3:0x113 / me=umh / subme=10 / psy=1 / psy_rd=1.00:0.15 / mixed_ref=1 / me_range=48 / chroma_me=1 / trellis=2 / 8x8dct=1 / cqm=0 / deadzone=21,11 / fast_pskip=1 / chroma_qp_offset=-3 / threads=65 / lookahead_threads=5 / sliced_threads=0 / nr=0 / decimate=0 / interlaced=0 / bluray_compat=0 / constrained_intra=0 / bframes=3 / b_pyramid=2 / b_adapt=2 / b_bias=0 / direct=3 / weightb=1 / open_gop=0 / weightp=2 / keyint=250 / keyint_min=23 / scenecut=40 / intra_refresh=0 / rc_lookahead=50 / rc=crf / mbtree=1 / crf=18.0 / qcomp=0.60 / qpmin=0 / qpmax=69 / qpstep=4 / ip_ratio=1.40 / aq=1:1.00
  29. Language : English
  30. Default : Yes
  31. Forced : No

  32. Audio #1
  33. ID : 2
  34. Format : TrueHD
  35. Format profile : TrueHD+Atmos / TrueHD
  36. Codec ID : A_TRUEHD
  37. Duration : 1 h 47 min
  38. Bit rate mode : Variable
  39. Bit rate : 4 889 kb/s
  40. Maximum bit rate : 8 139 kb/s
  41. Channel(s) : Object Based / 8 channels
  42. Channel positions : Object Based / Front: L C R, Side: L R, Back: L R, LFE
  43. Frame rate : 1 200.000 FPS (40 spf)
  44. Compression mode : Lossless
  45. Delay relative to video : 32 ms
  46. Stream size : 3.68 GiB (9%)
  47. Title : Sing.2016.2160p.BluRay.x264.8bit.SDR.DTS-HD.MA.TrueHD.7.1.Atmos-SWTYBLZ
  48. Language : English
  49. Default : Yes
  50. Forced : No

  51. Audio #2
  52. ID : 3
  53. Format : DTS
  54. Format/Info : Digital Theater Systems
  55. Format profile : MA / Core
  56. Mode : 16
  57. Format settings, Endianness : Big
  58. Codec ID : A_DTS
  59. Duration : 1 h 47 min
  60. Bit rate mode : Variable / Constant
  61. Bit rate : 3 840 kb/s / 1 509 kb/s
  62. Channel(s) : 8 channels / 6 channels
  63. Channel positions : Front: L C R, Side: L R, Back: L R, LFE / Front: L C R, Side: L R, LFE
  64. Sampling rate : 48.0 kHz
  65. Frame rate : 93.750 FPS (512 spf)
  66. Bit depth : 24 bits
  67. Compression mode : Lossless / Lossy
  68. Stream size : 2.95 GiB (7%)
  69. Title : Sing.2016.2160p.BluRay.x264.8bit.SDR.DTS-HD.MA.TrueHD.7.1.Atmos-SWTYBLZ
  70. Language : English
  71. Default : No
  72. Forced : No

  73. Audio #3
  74. ID : 4
  75. Format : AC-3
  76. Format/Info : Audio Coding 3
  77. Format settings, Endianness : Big
  78. Codec ID : A_AC3
  79. Duration : 1 h 47 min
  80. Bit rate mode : Constant
  81. Bit rate : 640 kb/s
  82. Channel(s) : 6 channels
  83. Channel positions : Front: L C R, Side: L R, LFE
  84. Sampling rate : 48.0 kHz
  85. Frame rate : 31.250 FPS (1536 spf)
  86. Bit depth : 16 bits
  87. Compression mode : Lossy
  88. Delay relative to video : 31 ms
  89. Stream size : 494 MiB (1%)
  90. Title : Sing.2016.2160p.BluRay.x264.8bit.SDR.DTS-HD.MA.TrueHD.7.1.Atmos-SWTYBLZ
  91. Language : English
  92. Service kind : Complete Main
  93. Default : No
  94. Forced : No

  95. Text #1
  96. ID : 5
  97. Format : UTF-8
  98. Codec ID : S_TEXT/UTF8
  99. Codec ID/Info : UTF-8 Plain Text
  100. Duration : 1 h 38 min
  101. Bit rate : 57 b/s
  102. Count of elements : 1411
  103. Stream size : 41.3 KiB (0%)
  104. Title : English-SRT
  105. Language : English
  106. Default : Yes
  107. Forced : No

  108. Text #2
  109. ID : 6
  110. Format : PGS
  111. Muxing mode : zlib
  112. Codec ID : S_HDMV/PGS
  113. Codec ID/Info : Picture based subtitle format used on BDs/HD-DVDs
  114. Duration : 1 h 39 min
  115. Bit rate : 47.0 kb/s
  116. Count of elements : 3466
  117. Stream size : 33.3 MiB (0%)
  118. Title : English-PGS
  119. Language : English
  120. Default : No
  121. Forced : No

  122. Text #3
  123. ID : 7
  124. Format : PGS
  125. Muxing mode : zlib
  126. Codec ID : S_HDMV/PGS
  127. Codec ID/Info : Picture based subtitle format used on BDs/HD-DVDs
  128. Duration : 1 h 46 min
  129. Bit rate : 32.4 kb/s
  130. Count of elements : 2934
  131. Stream size : 24.8 MiB (0%)
  132. Title : Spanish-PGS
  133. Language : Spanish
  134. Default : No
  135. Forced : No

  136. Text #4
  137. ID : 8
  138. Format : PGS
  139. Muxing mode : zlib
  140. Codec ID : S_HDMV/PGS
  141. Codec ID/Info : Picture based subtitle format used on BDs/HD-DVDs
  142. Duration : 1 h 46 min
  143. Bit rate : 31.5 kb/s
  144. Count of elements : 2724
  145. Stream size : 24.1 MiB (0%)
  146. Title : French-PGS
  147. Language : French
  148. Default : No
  149. Forced : No

  150. Menu
  151. 00:00:00.000 : en:Chapter 1
  152. 00:04:29.352 : en:Chapter 2
  153. 00:10:36.469 : en:Chapter 3
  154. 00:14:04.677 : en:Chapter 4
  155. 00:18:32.653 : en:Chapter 5
  156. 00:25:14.721 : en:Chapter 6
  157. 00:30:04.052 : en:Chapter 7
  158. 00:35:11.776 : en:Chapter 8
  159. 00:40:07.405 : en:Chapter 9
  160. 00:44:36.131 : en:Chapter 10
  161. 00:50:26.648 : en:Chapter 11
  162. 00:55:36.207 : en:Chapter 12
  163. 01:04:40.710 : en:Chapter 13
  164. 01:14:03.981 : en:Chapter 14
  165. 01:19:17.961 : en:Chapter 15
  166. 01:23:59.159 : en:Chapter 16
  167. 01:26:56.461 : en:Chapter 17
  168. 01:30:38.266 : en:Chapter 18
  169. 01:34:47.181 : en:Chapter 19
  170. 01:40:16.010 : en:Chapter 20





复制代码
回复

使用道具 举报

0

主题

0

好友

1万

积分

好莱坞明星

Rank: 6Rank: 6

UID
393564
主题
0
金钱
3216
高清币
2421
鲜花
0
阅读权限
90
QQ
QQ
最后登录
2018-8-15
发表于 昨天 22:01 |显示全部楼层
此帖仅作者可见

使用道具 举报

0

主题

0

好友

1万

积分

好莱坞明星

Rank: 6Rank: 6

UID
393564
主题
0
金钱
3216
高清币
2421
鲜花
0
阅读权限
90
QQ
QQ
最后登录
2018-8-15
发表于 前天 11:41 |显示全部楼层
此帖仅作者可见

使用道具 举报

0

主题

0

好友

234

积分

知名艺人

Rank: 2

UID
823606
主题
0
金钱
108
高清币
20
鲜花
0
阅读权限
20
QQ
QQ
最后登录
2018-8-12
发表于 3 天前 |显示全部楼层
此帖仅作者可见

使用道具 举报

0

主题

0

好友

4579

积分

天王巨星

Rank: 4

UID
912187
主题
0
金钱
1579
高清币
891
鲜花
0
阅读权限
50
QQ
QQ
最后登录
2018-8-14
发表于 3 天前 |显示全部楼层
此帖仅作者可见

使用道具 举报

期待您加入中国高清论坛QQ交流6群:20818254
 懒得打字嘛,点击右侧快捷回复【左侧自定义内容】  【右侧自定义内容】
您需要登录后才可以回帖 登录 | 立即注册

回顶部