请选择 进入手机版 | 继续访问电脑版

中国高清论坛

 找回密码
 立即注册
查看: 31|回复: 4

[爱情片] [补档] [IMDB 7.7分] [豆瓣 8.9分] 莫娣 Maudie.2016.1080p.BluRay.REMUX.AVC.DTS-HD.MA.5.1-FGT 32.98GB [爱尔兰/加拿大] [剧情/爱情/传记]

[复制链接]
匿名
匿名  发表于 2018-8-10 21:27:12



◎译  名 莫娣/彩绘心天地(台)/茉迪的彩色小屋(台)/莫迪
◎片  名 Maudie
◎年  代 2016
◎产  地 爱尔兰/加拿大
◎类  别 剧情/爱情/传记
◎语  言 英语
◎上映日期 2016-09-02(特柳赖德电影节)/2017-08-04(爱尔兰)
◎IMDb评分 7.7/10 from 9,084 users
◎IMDb链接 http://www.imdb.com/title/tt3721954/
◎豆瓣评分 8.9/10 from 18,631 users
◎豆瓣链接 https://movie.douban.com/subject/25938803/
◎片  长 115分钟
◎导  演 艾斯林·沃什 Aisling Walsh
◎主  演 莎莉·霍金斯 Sally Hawkins
      伊桑·霍克 Ethan Hawke
      卡瑞·玛切特 Kari Matchett
      加布里埃尔·罗斯 Gabrielle Rose
      扎卡里·贝内特 Zachary Bennett
      比利·麦克莱伦 Billy MacLellan
      玛丝·伯纳德 Marthe Bernard
      劳伦斯·巴里 Lawrence Barry
      大卫·菲恩 David Feehan
      格雷戈·马龙 Greg Malone


◎简  介 

  真人真事改编,描述在加拿大美丽的大西洋省份新斯科舍省(Nova Scotia),一位患有关节炎的民间艺术家莫娣·刘易斯(Maud Lewis),对艺术不懈的追求,与她的丈夫相识,并以艺术、贩卖作品为生的励志生活。


◎获  奖 

  第52届美国国家影评人协会奖  (2018)
  最佳女主角 莎莉·霍金斯
  
  第4届豆瓣电影年度榜单  (2017)
  年度冷门佳片

  1.       


  2. Video
  3. ID : 1
  4. Format : AVC
  5. Format/Info : Advanced Video Codec
  6. Format profile : High@L4.1
  7. Format settings, CABAC : Yes
  8. Format settings, ReFrames : 4 frames
  9. Codec ID : V_MPEG4/ISO/AVC
  10. Duration : 1 h 55 min
  11. Bit rate mode : Variable
  12. Maximum bit rate : 35.0 Mb/s
  13. Width : 1 920 pixels
  14. Height : 1 080 pixels
  15. Display aspect ratio : 16:9
  16. Frame rate mode : Constant
  17. Frame rate : 24.000 FPS
  18. Standard : NTSC
  19. Color space : YUV
  20. Chroma subsampling : 4:2:0
  21. Bit depth : 8 bits
  22. Scan type : Progressive
  23. Title : Maudie.2016.1080p.BluRay.REMUX.AVC.DTS-HD.MA.5.1-FGT
  24. Language : English
  25. Default : No
  26. Forced : No
  27. Color range : Limited
  28. Color primaries : BT.709
  29. Transfer characteristics : BT.709
  30. Matrix coefficients : BT.709

  31. Audio #1
  32. ID : 2
  33. Format : DTS
  34. Format/Info : Digital Theater Systems
  35. Format profile : MA / Core
  36. Mode : 16
  37. Format settings, Endianness : Big
  38. Codec ID : A_DTS
  39. Duration : 1 h 55 min
  40. Bit rate mode : Variable / Constant
  41. Bit rate : Unknown / 1 509 kb/s
  42. Channel(s) : 6 channels
  43. Channel positions : Front: L C R, Side: L R, LFE
  44. Sampling rate : 48.0 kHz
  45. Frame rate : 93.750 FPS (512 spf)
  46. Bit depth : 24 bits
  47. Compression mode : Lossless / Lossy
  48. Title : Maudie.2016.1080p.BluRay.REMUX.AVC.DTS-HD.MA.5.1-FGT
  49. Language : English
  50. Default : Yes
  51. Forced : No

  52. Audio #2
  53. ID : 3
  54. Format : DTS
  55. Format/Info : Digital Theater Systems
  56. Mode : 16
  57. Format settings, Endianness : Big
  58. Codec ID : A_DTS
  59. Duration : 1 h 55 min
  60. Bit rate mode : Constant
  61. Bit rate : 1 509 kb/s
  62. Channel(s) : 6 channels
  63. Channel positions : Front: L C R, Side: L R, LFE
  64. Sampling rate : 48.0 kHz
  65. Frame rate : 93.750 FPS (512 spf)
  66. Bit depth : 24 bits
  67. Compression mode : Lossy
  68. Stream size : 1.22 GiB (4%)
  69. Title : Maudie.2016.1080p.BluRay.REMUX.AVC.DTS-HD.MA.5.1-FGT
  70. Language : English
  71. Default : No
  72. Forced : No

  73. Audio #3
  74. ID : 4
  75. Format : DTS
  76. Format/Info : Digital Theater Systems
  77. Format profile : MA / Core
  78. Mode : 16
  79. Format settings, Endianness : Big
  80. Codec ID : A_DTS
  81. Duration : 1 h 55 min
  82. Bit rate mode : Variable / Constant
  83. Bit rate : Unknown / 1 509 kb/s
  84. Channel(s) : 6 channels
  85. Channel positions : Front: L C R, Side: L R, LFE
  86. Sampling rate : 48.0 kHz
  87. Frame rate : 93.750 FPS (512 spf)
  88. Bit depth : 24 bits
  89. Compression mode : Lossless / Lossy
  90. Title : Maudie.2016.1080p.BluRay.REMUX.AVC.DTS-HD.MA.5.1-FGT
  91. Language : French
  92. Default : No
  93. Forced : No

  94. Audio #4
  95. ID : 5
  96. Format : DTS
  97. Format/Info : Digital Theater Systems
  98. Mode : 16
  99. Format settings, Endianness : Big
  100. Codec ID : A_DTS
  101. Duration : 1 h 55 min
  102. Bit rate mode : Constant
  103. Bit rate : 1 509 kb/s
  104. Channel(s) : 6 channels
  105. Channel positions : Front: L C R, Side: L R, LFE
  106. Sampling rate : 48.0 kHz
  107. Frame rate : 93.750 FPS (512 spf)
  108. Bit depth : 24 bits
  109. Compression mode : Lossy
  110. Stream size : 1.22 GiB (4%)
  111. Title : Maudie.2016.1080p.BluRay.REMUX.AVC.DTS-HD.MA.5.1-FGT
  112. Language : French
  113. Default : No
  114. Forced : No

  115. Audio #5
  116. ID : 6
  117. Format : AC-3
  118. Format/Info : Audio Coding 3
  119. Format settings, Endianness : Big
  120. Codec ID : A_AC3
  121. Duration : 1 h 55 min
  122. Bit rate mode : Constant
  123. Bit rate : 448 kb/s
  124. Channel(s) : 2 channels
  125. Channel positions : Front: L R
  126. Sampling rate : 48.0 kHz
  127. Frame rate : 31.250 FPS (1536 spf)
  128. Bit depth : 16 bits
  129. Compression mode : Lossy
  130. Stream size : 371 MiB (1%)
  131. Title : Maudie.2016.1080p.BluRay.REMUX.AVC.DTS-HD.MA.5.1-FGT
  132. Language : English
  133. Service kind : Complete Main
  134. Default : No
  135. Forced : No

  136. Text #1
  137. ID : 7
  138. Format : PGS
  139. Muxing mode : zlib
  140. Codec ID : S_HDMV/PGS
  141. Codec ID/Info : Picture based subtitle format used on BDs/HD-DVDs
  142. Title : English-PGS
  143. Language : English
  144. Default : Yes
  145. Forced : No

  146. Text #2
  147. ID : 8
  148. Format : PGS
  149. Muxing mode : zlib
  150. Codec ID : S_HDMV/PGS
  151. Codec ID/Info : Picture based subtitle format used on BDs/HD-DVDs
  152. Title : French-PGS
  153. Language : French
  154. Default : No
  155. Forced : No

  156. Text #3
  157. ID : 9
  158. Format : PGS
  159. Muxing mode : zlib
  160. Codec ID : S_HDMV/PGS
  161. Codec ID/Info : Picture based subtitle format used on BDs/HD-DVDs
  162. Title : French-FORCED-PGS
  163. Language : French
  164. Default : No
  165. Forced : No

  166. Menu
  167. 00:00:00.000 : en:Chapter 00
  168. 00:00:11.541 : en:Chapter 01
  169. 00:06:04.458 : en:Chapter 02
  170. 00:12:30.375 : en:Chapter 03
  171. 00:17:54.083 : en:Chapter 04
  172. 00:24:09.125 : en:Chapter 05
  173. 00:30:19.833 : en:Chapter 06
  174. 00:36:15.166 : en:Chapter 07
  175. 00:41:48.416 : en:Chapter 08
  176. 00:48:34.166 : en:Chapter 09
  177. 00:54:29.958 : en:Chapter 10
  178. 01:00:34.750 : en:Chapter 11
  179. 01:05:34.250 : en:Chapter 12
  180. 01:09:51.625 : en:Chapter 13
  181. 01:14:41.500 : en:Chapter 14
  182. 01:22:11.541 : en:Chapter 15
  183. 01:28:13.833 : en:Chapter 16
  184. 01:33:16.375 : en:Chapter 17
  185. 01:38:26.458 : en:Chapter 18
  186. 01:43:57.250 : en:Chapter 19
  187. 01:50:24.583 : en:Chapter 20





复制代码

购买主题 本主题需向作者支付 1 高清币 才能浏览
回复

使用道具 举报

0

主题

0

好友

266

积分

知名艺人

Rank: 2

UID
821677
主题
0
金钱
153
高清币
2
鲜花
0
阅读权限
20
QQ
QQ
最后登录
2018-9-15
发表于 2018-8-21 00:43:26 |显示全部楼层
此帖仅作者可见

使用道具 举报

1

主题

0

好友

1186

积分

人气偶像

Rank: 3Rank: 3

UID
233689
主题
1
金钱
746
高清币
7
鲜花
0
阅读权限
30
QQ
QQ
最后登录
2018-10-10
发表于 2018-8-17 23:04:37 |显示全部楼层
此帖仅作者可见

使用道具 举报

3

主题

0

好友

7871

积分

金鸡奖主角

Rank: 5Rank: 5

UID
64119
主题
3
金钱
3923
高清币
822
鲜花
0
阅读权限
70
QQ
QQ
最后登录
2018-10-15
发表于 2018-8-12 07:25:49 |显示全部楼层
此帖仅作者可见

使用道具 举报

0

主题

0

好友

4475

积分

天王巨星

Rank: 4

UID
912187
主题
0
金钱
1728
高清币
742
鲜花
0
阅读权限
50
QQ
QQ
最后登录
2018-10-15
发表于 2018-8-12 07:07:29 |显示全部楼层
此帖仅作者可见

使用道具 举报

期待您加入中国高清论坛QQ交流6群:20818254
 懒得打字嘛,点击右侧快捷回复【左侧自定义内容】  【右侧自定义内容】
您需要登录后才可以回帖 登录 | 立即注册

回顶部