请选择 进入手机版 | 继续访问电脑版

中国高清论坛

 找回密码
 立即注册
查看: 23|回复: 5

[其 他] [补档] [IMDB 6.1分] [豆瓣 6.2分] 自杀小队 Suicide.Squad.2016.THEATRICAL.2160p.BluRay.x265.10bit.SDR.DTS-HD.MA.TrueHD.7.1.Atmos-SWTYBLZ 27.64GB [美国] [动作/犯罪/奇幻]

[复制链接]
匿名
匿名  发表于 5 天前
游客,如果您要查看本帖隐藏内容请回复,如不想回复请点击赞助VIP贵宾:https://item.taobao.com/item.htm?id=540849877691



◎译  名 自杀小队/自杀特攻:超能暴队(港)/自杀突击队(台)/X特遣队/犯罪敢死队/Task Force X/Bravo 14
◎片  名 Suicide Squad
◎年  代 2016
◎产  地 美国
◎类  别 动作/犯罪/奇幻
◎语  言 英语/日语/西班牙语
◎上映日期 2016-08-05(美国)
◎IMDb评分 6.1/10 from 488,137 users
◎IMDb链接 http://www.imdb.com/title/tt1386697/
◎豆瓣评分 6.2/10 from 118,629 users
◎豆瓣链接 https://movie.douban.com/subject/3569910/
◎片  长 123分钟
◎导  演 大卫·阿耶 David Ayer
◎主  演 威尔·史密斯 Will Smith
      杰瑞德·莱托 Jared Leto
      玛格特·罗比 Margot Robbie
      乔尔·金纳曼 Joel Kinnaman
      维奥拉·戴维斯 Viola Davis
      本·阿弗莱克 Ben Affleck
      杰·科特尼 Jai Courtney
      卡拉·迪瓦伊 Cara Delevingne
      杰伊·赫尔南德兹 Jay Hernandez
      斯科特·伊斯特伍德 Scott Eastwood
      阿德沃尔·阿吉纽依-艾格拜吉 Adewale Akinnuoye-Agbaje
      埃兹拉·米勒 Ezra Miller
      科曼 Common
      亚当·比奇 Adam Beach
      吉姆·帕拉克 Jim Parrack
      伊克·巴里霍尔兹 Ike Barinholtz
      亚历克斯·梅拉兹 Alex Meraz
      凯伦·福原爱 Karen Fukuhara
      雷蒙德·奥鲁巴维尔 Raymond Olubawale


◎简  介 

  阿曼达(维奥拉·戴维斯 Viola Davis 饰)身为政府秘密机构的领导人,面对社会中出现的层出不穷的暴力恐怖袭击事件,决心启用一批被关押在监狱中判了无期徒刑的超级反派们,他们是小丑女(玛歌特·罗比 Margot Robbie 饰)、死亡射手(威尔·史密斯 Will Smith 饰)、回旋镖队长(杰·科特尼 Jai Courtney 饰)、复仇恶魔(杰伊·赫尔南德兹 Jay Hernandez 饰)和杀手鳄(阿德沃尔·阿吉纽依-艾格拜吉 Adewale Akinnuoye-Agbaje 饰)。
  他们所要面对的,是拥有强大法力的魅巫(卡拉·迪瓦伊 Cara Delevingne 饰),她和她的哥哥一起制造了一种非常危险的武器,企图用此控制全人类。除此之外,阿曼达还必须提防为了解救女友小丑女而不惜一切手段的危险人物小丑(杰瑞德·莱托 Jared Leto 饰)。


◎获  奖 

  第89届奥斯卡金像奖  (2017)
  最佳化妆与发型设计 GiorgioGregorini / 克里斯托弗·艾伦·尼尔森 / AlessandroBertolazzi
  
  第37届金酸莓奖  (2017)
  最差男配角(提名) 杰瑞德·莱托
  最差剧本(提名)
  
  第26届MTV电影奖  (2017)
  MTV电影奖最佳反派(提名) 杰瑞德·莱托
  
  第22届美国评论家选择电影奖  (2017)
  动作片最佳女主角 玛格特·罗比
  
  第3届豆瓣电影年度榜单  (2016)
  最受关注的非院线电影(提名)

  1. SWEATY BALLZ presents

  2. Suicide.Squad.2016.THEATRICAL.2160p.BluRay.x265.10bit.SDR.DTS-HD.MA.TrueHD.7.1.Atmos-SWTYBLZ

  3. Converted from 10 bit HDR to 10 bit SDR using tripple mixed Hable-Reinhard-JJ per scene+frame analysis algorithm

  4. Screenshots are 8bit SDR because browsers dont support HDR or 10bit files

  5.       


  6. Video
  7. ID : 1
  8. Format : HEVC
  9. Format/Info : High Efficiency Video Coding
  10. Format profile : Main 10@L5.1@High
  11. Codec ID : V_MPEGH/ISO/HEVC
  12. Duration : 2 h 2 min
  13. Bit rate : 23.8 Mb/s
  14. Width : 3 840 pixels
  15. Height : 1 600 pixels
  16. Display aspect ratio : 2.40:1
  17. Frame rate mode : Constant
  18. Frame rate : 23.976 (24000/1001) FPS
  19. Color space : YUV
  20. Chroma subsampling : 4:2:0
  21. Bit depth : 10 bits
  22. Bits/(Pixel*Frame) : 0.162
  23. Stream size : 20.5 GiB (75%)
  24. Title : Suicide.Squad.2016.THEATRICAL.2160p.BluRay.x265.10bit.SDR.DTS-HD.MA.TrueHD.7.1.Atmos-SWTYBLZ
  25. Writing library : x265 2.5+4-b4a5bcfe29c7:[Windows][GCC 4.9.3][64 bit] 10bit
  26. Encoding settings : cpuid=1173503 / frame-threads=16 / numa-pools=24,24,24,24 / wpp / no-pmode / no-pme / no-psnr / no-ssim / log-level=2 / input-csp=1 / input-res=3840x1600 / interlace=0 / total-frames=0 / level-idc=51 / high-tier=1 / uhd-bd=0 / ref=3 / no-allow-non-conformance / repeat-headers / annexb / aud / hrd / info / hash=0 / no-temporal-layers / no-open-gop / min-keyint=1 / keyint=24 / bframes=4 / b-adapt=2 / b-pyramid / bframe-bias=0 / rc-lookahead=25 / lookahead-slices=4 / scenecut=40 / no-intra-refresh / ctu=64 / min-cu-size=8 / no-rect / no-amp / max-tu-size=32 / tu-inter-depth=1 / tu-intra-depth=1 / limit-tu=0 / rdoq-level=0 / dynamic-rd=0.00 / no-ssim-rd / signhide / no-tskip / nr-intra=0 / nr-inter=0 / no-constrained-intra / strong-intra-smoothing / max-merge=2 / limit-refs=3 / no-limit-modes / me=1 / subme=2 / merange=57 / temporal-mvp / weightp / no-weightb / no-analyze-src-pics / deblock=0:0 / no-sao / no-sao-non-deblock / rd=3 / no-early-skip / rskip / no-fast-intra / no-tskip-fast / no-cu-lossless / no-b-intra / rdpenalty=0 / psy-rd=2.00 / psy-rdoq=0.00 / no-rd-refine / analysis-reuse-mode=0 / no-lossless / cbqpoffs=0 / crqpoffs=0 / rc=crf / crf=16.0 / qcomp=0.60 / qpstep=4 / stats-write=0 / stats-read=0 / vbv-maxrate=160000 / vbv-bufsize=160000 / vbv-init=0.9 / crf-max=0.0 / crf-min=0.0 / ipratio=1.40 / pbratio=1.30 / aq-mode=1 / aq-strength=1.00 / cutree / zone-count=0 / no-strict-cbr / qg-size=32 / no-rc-grain / qpmax=69 / qpmin=0 / no-const-vbv / sar=1 / overscan=0 / videoformat=5 / range=0 / colorprim=2 / transfer=2 / colormatrix=2 / chromaloc=0 / display-window=0 / max-cll=0,0 / min-luma=0 / max-luma=1023 / log2-max-poc-lsb=8 / vui-timing-info / vui-hrd-info / slices=1 / opt-qp-pps / opt-ref-list-length-pps / no-multi-pass-opt-rps / scenecut-bias=0.05 / no-opt-cu-delta-qp / no-aq-motion / no-hdr / no-hdr-opt / no-dhdr10-opt / analysis-reuse-level=5 / scale-factor=0 / refine-intra=0 / refine-inter=0 / refine-mv=0 / no-limit-sao / ctu-info=0
  27. Language : English
  28. Default : Yes
  29. Forced : No

  30. Audio #1
  31. ID : 2
  32. Format : TrueHD
  33. Format profile : TrueHD+Atmos / TrueHD
  34. Codec ID : A_TRUEHD
  35. Duration : 2 h 2 min
  36. Bit rate mode : Variable
  37. Bit rate : 3 800 kb/s
  38. Maximum bit rate : 5 847 kb/s
  39. Channel(s) : Object Based / 8 channels
  40. Channel positions : Object Based / Front: L C R, Side: L R, Back: L R, LFE
  41. Frame rate : 1 200.000 FPS (40 spf)
  42. Compression mode : Lossless
  43. Stream size : 3.26 GiB (12%)
  44. Title : Suicide.Squad.2016.THEATRICAL.2160p.BluRay.x265.10bit.SDR.DTS-HD.MA.TrueHD.7.1.Atmos-SWTYBLZ
  45. Language : English
  46. Default : Yes
  47. Forced : No

  48. Audio #2
  49. ID : 3
  50. Format : DTS
  51. Format/Info : Digital Theater Systems
  52. Format profile : MA / Core
  53. Mode : 16
  54. Format settings, Endianness : Big
  55. Codec ID : A_DTS
  56. Duration : 2 h 2 min
  57. Bit rate mode : Variable / Constant
  58. Bit rate : 3 690 kb/s / 1 509 kb/s
  59. Channel(s) : 8 channels / 6 channels
  60. Channel positions : Front: L C R, Side: L R, Back: L R, LFE / Front: L C R, Side: L R, LFE
  61. Sampling rate : 48.0 kHz
  62. Frame rate : 93.750 FPS (512 spf)
  63. Bit depth : 24 bits
  64. Compression mode : Lossless / Lossy
  65. Stream size : 3.17 GiB (12%)
  66. Title : Suicide.Squad.2016.THEATRICAL.2160p.BluRay.x265.10bit.SDR.DTS-HD.MA.TrueHD.7.1.Atmos-SWTYBLZ
  67. Language : English
  68. Default : No
  69. Forced : No

  70. Audio #3
  71. ID : 4
  72. Format : AC-3
  73. Format/Info : Audio Coding 3
  74. Format settings, Endianness : Big
  75. Codec ID : A_AC3
  76. Duration : 2 h 2 min
  77. Bit rate mode : Constant
  78. Bit rate : 640 kb/s
  79. Channel(s) : 6 channels
  80. Channel positions : Front: L C R, Side: L R, LFE
  81. Sampling rate : 48.0 kHz
  82. Frame rate : 31.250 FPS (1536 spf)
  83. Bit depth : 16 bits
  84. Compression mode : Lossy
  85. Stream size : 338 MiB (1%)
  86. Title : Suicide.Squad.2016.THEATRICAL.2160p.BluRay.x265.10bit.SDR.DTS-HD.MA.TrueHD.7.1.Atmos-SWTYBLZ
  87. Language : English
  88. Service kind : Complete Main
  89. Default : No
  90. Forced : No

  91. Text #1
  92. ID : 5
  93. Format : UTF-8
  94. Codec ID : S_TEXT/UTF8
  95. Codec ID/Info : UTF-8 Plain Text
  96. Duration : 2 h 2 min
  97. Bit rate : 44 b/s
  98. Count of elements : 1321
  99. Stream size : 39.8 KiB (0%)
  100. Title : English-SRT
  101. Language : English
  102. Default : Yes
  103. Forced : No

  104. Text #2
  105. ID : 6
  106. Format : PGS
  107. Muxing mode : zlib
  108. Codec ID : S_HDMV/PGS
  109. Codec ID/Info : Picture based subtitle format used on BDs/HD-DVDs
  110. Duration : 2 h 2 min
  111. Bit rate : 30.5 kb/s
  112. Count of elements : 3228
  113. Stream size : 26.7 MiB (0%)
  114. Title : English-PGS
  115. Language : English
  116. Default : No
  117. Forced : No

  118. Text #3
  119. ID : 7
  120. Format : PGS
  121. Muxing mode : zlib
  122. Codec ID : S_HDMV/PGS
  123. Codec ID/Info : Picture based subtitle format used on BDs/HD-DVDs
  124. Duration : 1 h 55 min
  125. Bit rate : 17.7 kb/s
  126. Count of elements : 2631
  127. Stream size : 14.6 MiB (0%)
  128. Title : Japanese-PGS
  129. Language : Japanese
  130. Default : No
  131. Forced : No

  132. Text #4
  133. ID : 8
  134. Format : PGS
  135. Muxing mode : zlib
  136. Codec ID : S_HDMV/PGS
  137. Codec ID/Info : Picture based subtitle format used on BDs/HD-DVDs
  138. Duration : 2 h 2 min
  139. Bit rate : 22.9 kb/s
  140. Count of elements : 2720
  141. Stream size : 20.0 MiB (0%)
  142. Title : French-PGS
  143. Language : French
  144. Default : No
  145. Forced : No

  146. Text #5
  147. ID : 9
  148. Format : PGS
  149. Muxing mode : zlib
  150. Codec ID : S_HDMV/PGS
  151. Codec ID/Info : Picture based subtitle format used on BDs/HD-DVDs
  152. Duration : 2 h 2 min
  153. Bit rate : 29.5 kb/s
  154. Count of elements : 3296
  155. Stream size : 25.9 MiB (0%)
  156. Title : Italian-PGS
  157. Language : Italian
  158. Default : No
  159. Forced : No

  160. Text #6
  161. ID : 10
  162. Format : PGS
  163. Muxing mode : zlib
  164. Codec ID : S_HDMV/PGS
  165. Codec ID/Info : Picture based subtitle format used on BDs/HD-DVDs
  166. Duration : 2 h 2 min
  167. Bit rate : 25.3 kb/s
  168. Count of elements : 2896
  169. Stream size : 22.2 MiB (0%)
  170. Title : Spanish-PGS
  171. Language : Spanish
  172. Default : No
  173. Forced : No

  174. Text #7
  175. ID : 11
  176. Format : PGS
  177. Muxing mode : zlib
  178. Codec ID : S_HDMV/PGS
  179. Codec ID/Info : Picture based subtitle format used on BDs/HD-DVDs
  180. Duration : 2 h 2 min
  181. Bit rate : 26.3 kb/s
  182. Count of elements : 2908
  183. Stream size : 23.0 MiB (0%)
  184. Title : Chinese-PGS
  185. Language : Chinese
  186. Default : No
  187. Forced : No

  188. Text #8
  189. ID : 12
  190. Format : PGS
  191. Muxing mode : zlib
  192. Codec ID : S_HDMV/PGS
  193. Codec ID/Info : Picture based subtitle format used on BDs/HD-DVDs
  194. Duration : 2 h 2 min
  195. Bit rate : 22.2 kb/s
  196. Count of elements : 2952
  197. Stream size : 19.4 MiB (0%)
  198. Title : Chinese-PGS
  199. Language : Chinese
  200. Default : No
  201. Forced : No

  202. Text #9
  203. ID : 13
  204. Format : PGS
  205. Muxing mode : zlib
  206. Codec ID : S_HDMV/PGS
  207. Codec ID/Info : Picture based subtitle format used on BDs/HD-DVDs
  208. Duration : 2 h 2 min
  209. Bit rate : 16.0 kb/s
  210. Count of elements : 2896
  211. Stream size : 14.0 MiB (0%)
  212. Title : Korean-PGS
  213. Language : Korean
  214. Default : No
  215. Forced : No

  216. Text #10
  217. ID : 14
  218. Format : PGS
  219. Muxing mode : zlib
  220. Codec ID : S_HDMV/PGS
  221. Codec ID/Info : Picture based subtitle format used on BDs/HD-DVDs
  222. Duration : 2 h 2 min
  223. Bit rate : 26.0 kb/s
  224. Count of elements : 2940
  225. Stream size : 22.8 MiB (0%)
  226. Title : Spanish-PGS
  227. Language : Spanish
  228. Default : No
  229. Forced : No

  230. Text #11
  231. ID : 15
  232. Format : PGS
  233. Muxing mode : zlib
  234. Codec ID : S_HDMV/PGS
  235. Codec ID/Info : Picture based subtitle format used on BDs/HD-DVDs
  236. Duration : 2 h 2 min
  237. Bit rate : 26.8 kb/s
  238. Count of elements : 2948
  239. Stream size : 23.5 MiB (0%)
  240. Title : Portuguese-PGS
  241. Language : Portuguese
  242. Default : No
  243. Forced : No

  244. Text #12
  245. ID : 16
  246. Format : PGS
  247. Muxing mode : zlib
  248. Codec ID : S_HDMV/PGS
  249. Codec ID/Info : Picture based subtitle format used on BDs/HD-DVDs
  250. Duration : 2 h 2 min
  251. Bit rate : 13.7 kb/s
  252. Count of elements : 2780
  253. Stream size : 12.0 MiB (0%)
  254. Title : Arabic-PGS
  255. Language : Arabic
  256. Default : No
  257. Forced : No

  258. Text #13
  259. ID : 17
  260. Format : PGS
  261. Muxing mode : zlib
  262. Codec ID : S_HDMV/PGS
  263. Codec ID/Info : Picture based subtitle format used on BDs/HD-DVDs
  264. Duration : 2 h 2 min
  265. Bit rate : 20.5 kb/s
  266. Count of elements : 2928
  267. Stream size : 18.0 MiB (0%)
  268. Title : Czech-PGS
  269. Language : Czech
  270. Default : No
  271. Forced : No

  272. Text #14
  273. ID : 18
  274. Format : PGS
  275. Muxing mode : zlib
  276. Codec ID : S_HDMV/PGS
  277. Codec ID/Info : Picture based subtitle format used on BDs/HD-DVDs
  278. Duration : 2 h 2 min
  279. Bit rate : 23.3 kb/s
  280. Count of elements : 2138
  281. Stream size : 20.4 MiB (0%)
  282. Title : Danish-PGS
  283. Language : Danish
  284. Default : No
  285. Forced : No

  286. Text #15
  287. ID : 19
  288. Format : PGS
  289. Muxing mode : zlib
  290. Codec ID : S_HDMV/PGS
  291. Codec ID/Info : Picture based subtitle format used on BDs/HD-DVDs
  292. Duration : 2 h 2 min
  293. Bit rate : 24.1 kb/s
  294. Count of elements : 2762
  295. Stream size : 21.1 MiB (0%)
  296. Title : Finnish-PGS
  297. Language : Finnish
  298. Default : No
  299. Forced : No

  300. Text #16
  301. ID : 20
  302. Format : PGS
  303. Muxing mode : zlib
  304. Codec ID : S_HDMV/PGS
  305. Codec ID/Info : Picture based subtitle format used on BDs/HD-DVDs
  306. Duration : 2 h 2 min
  307. Bit rate : 23.5 kb/s
  308. Count of elements : 2554
  309. Stream size : 20.6 MiB (0%)
  310. Title : Norwegian-PGS
  311. Language : Norwegian
  312. Default : No
  313. Forced : No

  314. Text #17
  315. ID : 21
  316. Format : PGS
  317. Muxing mode : zlib
  318. Codec ID : S_HDMV/PGS
  319. Codec ID/Info : Picture based subtitle format used on BDs/HD-DVDs
  320. Duration : 2 h 2 min
  321. Bit rate : 22.1 kb/s
  322. Count of elements : 2898
  323. Stream size : 19.4 MiB (0%)
  324. Title : Polish-PGS
  325. Language : Polish
  326. Default : No
  327. Forced : No

  328. Text #18
  329. ID : 22
  330. Format : PGS
  331. Muxing mode : zlib
  332. Codec ID : S_HDMV/PGS
  333. Codec ID/Info : Picture based subtitle format used on BDs/HD-DVDs
  334. Duration : 2 h 2 min
  335. Bit rate : 25.8 kb/s
  336. Count of elements : 2944
  337. Stream size : 22.6 MiB (0%)
  338. Title : Swedish-PGS
  339. Language : Swedish
  340. Default : No
  341. Forced : No

  342. Menu
  343. 00:00:00.000 : en:Chapter 1
  344. 00:09:07.505 : en:Chapter 2
  345. 00:19:03.725 : en:Chapter 3
  346. 00:29:27.140 : en:Chapter 4
  347. 00:39:17.313 : en:Chapter 5
  348. 00:50:21.226 : en:Chapter 6
  349. 01:00:10.106 : en:Chapter 7
  350. 01:11:46.927 : en:Chapter 8
  351. 01:22:46.127 : en:Chapter 9
  352. 01:32:01.098 : en:Chapter 10
  353. 01:39:21.830 : en:Chapter 11
  354. 01:52:27.991 : en:Chapter 12





复制代码
回复

使用道具 举报

0

主题

0

好友

1817

积分

人气偶像

Rank: 3Rank: 3

UID
767333
主题
0
金钱
1137
高清币
4
鲜花
0
阅读权限
30
QQ
QQ
最后登录
2018-8-14
发表于 3 天前 |显示全部楼层
此帖仅作者可见

使用道具 举报

0

主题

0

好友

4579

积分

天王巨星

Rank: 4

UID
912187
主题
0
金钱
1579
高清币
891
鲜花
0
阅读权限
50
QQ
QQ
最后登录
2018-8-14
发表于 4 天前 |显示全部楼层
此帖仅作者可见

使用道具 举报

1

主题

1

好友

1868

积分

人气偶像

Rank: 3Rank: 3

UID
720797
主题
1
金钱
1082
高清币
247
鲜花
0
阅读权限
30
QQ
QQ
最后登录
2018-8-15

金牛座

发表于 5 天前 |显示全部楼层
此帖仅作者可见

使用道具 举报

1

主题

1

好友

1868

积分

人气偶像

Rank: 3Rank: 3

UID
720797
主题
1
金钱
1082
高清币
247
鲜花
0
阅读权限
30
QQ
QQ
最后登录
2018-8-15

金牛座

发表于 5 天前 |显示全部楼层
此帖仅作者可见

使用道具 举报

0

主题

0

好友

64

积分

跑龙套

Rank: 1

UID
937959
主题
0
金钱
30
高清币
8
鲜花
0
阅读权限
10
QQ
QQ
最后登录
2018-8-14
发表于 5 天前 |显示全部楼层
此帖仅作者可见

使用道具 举报

期待您加入中国高清论坛QQ交流6群:20818254
 懒得打字嘛,点击右侧快捷回复【左侧自定义内容】  【右侧自定义内容】
您需要登录后才可以回帖 登录 | 立即注册

回顶部