请选择 进入手机版 | 继续访问电脑版

中国高清论坛

 找回密码
 立即注册
查看: 45|回复: 7

[其 他] [补档] [IMDB 5.9分] [豆瓣 6.2分] 异型基地 Body.Snatchers.1993.720p.BluRay.x264-PSYCHD 4.37GB [美国] [科幻/悬疑/惊悚/恐怖]

[复制链接]
匿名
匿名  发表于 5 天前
游客,如果您要查看本帖隐藏内容请回复,如不想回复请点击赞助VIP贵宾:https://item.taobao.com/item.htm?id=540849877691



◎译  名 异型基地/異形怪客/外星人入侵
◎片  名 Body Snatchers
◎年  代 1993
◎产  地 美国
◎类  别 科幻/悬疑/惊悚/恐怖
◎语  言 英语
◎上映日期 1993-06-09(美国)
◎IMDb评分 5.9/10 from 14,849 users
◎IMDb链接 http://www.imdb.com/title/tt0106452/
◎豆瓣评分 6.2/10 from 463 users
◎豆瓣链接 https://movie.douban.com/subject/1295404/
◎片  长 87分钟
◎导  演 阿贝尔·费拉拉 Abel Ferrara
◎主  演 加布里埃尔·安瓦尔 Gabrielle Anwar
      特里·金尼 Terry Kinney
      比利·沃斯 Billy Wirth
      梅格·提利 Meg Tilly
      福里斯特·惠特克 Forest Whitaker


◎简  介 

  恐怖事件接二连三地在某军事基地发生,外星生物在人们熟睡的时候正大批侵入人体和大脑,进而毁灭人类……玛蒂和弟弟跟随从事环保工作的爸爸来到一个军事基地,调查那里的化学污染情况,恐怖之事从此接踵而来。刚进基地玛蒂就觉得那里的人都很怪异。原来这个基地已被外星来的一种生物所占领。它们趁人们熟睡的时候侵入人的体内和大脑,让他们成为活死人,企图籍此占领所有的军事基地。进而毁灭人类。玛蒂的父母及弟弟都相继被外星生物杀死。玛蒂在飞行员蒂姆的救助下逃出该基地,并在路上炸毁了将外星生物运往其它军事基地的卡车。但除了他们俩之外,又有谁会相信这段经历呢?


◎获  奖 

  第46届戛纳电影节  (1993)
  主竞赛单元金棕榈奖(提名) 阿贝尔·费拉拉

  1. Video
  2. ID : 1
  3. Format : AVC
  4. Format/Info : Advanced Video Codec
  5. Format profile : High@L4.1
  6. Format settings, CABAC : Yes
  7. Format settings, ReFrames : 5 frames
  8. Codec ID : V_MPEG4/ISO/AVC
  9. Duration : 1h 27mn
  10. Bit rate : 5 670 Kbps
  11. Width : 1 280 pixels
  12. Height : 536 pixels
  13. Display aspect ratio : 2.40:1
  14. Frame rate mode : Constant
  15. Frame rate : 23.976 (24000/1001) fps
  16. Color space : YUV
  17. Chroma subsampling : 4:2:0
  18. Bit depth : 8 bits
  19. Scan type : Progressive
  20. Bits/(Pixel*Frame) : 0.345
  21. Stream size : 3.36 GiB (77%)
  22. Writing library : x264 core 152 r2851 ba24899
  23. Encoding settings : cabac=1 / ref=5 / deblock=1:-3:-3 / analyse=0x3:0x113 / me=umh / subme=8 / psy=1 / psy_rd=1.10:0.00 / mixed_ref=1 / me_range=24 / chroma_me=1 / trellis=2 / 8x8dct=1 / cqm=0 / deadzone=21,11 / fast_pskip=1 / chroma_qp_offset=-2 / threads=17 / lookahead_threads=2 / sliced_threads=0 / nr=0 / decimate=1 / interlaced=0 / bluray_compat=0 / constrained_intra=0 / bframes=3 / b_pyramid=2 / b_adapt=2 / b_bias=0 / direct=3 / weightb=1 / open_gop=0 / weightp=2 / keyint=240 / keyint_min=24 / scenecut=40 / intra_refresh=0 / rc_lookahead=50 / rc=2pass / mbtree=1 / bitrate=5670 / ratetol=1.0 / qcomp=0.60 / qpmin=0 / qpmax=69 / qpstep=4 / cplxblur=20.0 / qblur=0.5 / ip_ratio=1.40 / aq=3:0.75
  24. Default : Yes
  25. Forced : No
  26. Statistics Tags Issue : no_variable_data 1970-01-01 00:00:00 / no_variable_data 2010-02-22 21:41:29
  27. FromStats_BitRate : 5668141
  28. FromStats_Duration : 01:27:08.265000000
  29. FromStats_FrameCount : 125353
  30. FromStats_StreamSize : 3704318133

  31. Audio
  32. ID : 2
  33. Format : DTS
  34. Format/Info : Digital Theater Systems
  35. Mode : 16
  36. Format settings, Endianness : Big
  37. Codec ID : A_DTS
  38. Duration : 1h 27mn
  39. Bit rate mode : Constant
  40. Bit rate : 1 509 Kbps
  41. Channel(s) : 6 channels
  42. Channel positions : Front: L C R, Side: L R, LFE
  43. Sampling rate : 48.0 KHz
  44. Frame rate : 93.750 fps (512 spf)
  45. Bit depth : 24 bits
  46. Compression mode : Lossy
  47. Stream size : 941 MiB (21%)
  48. Language : English
  49. Default : Yes
  50. Forced : No
  51. Statistics Tags Issue : no_variable_data 1970-01-01 00:00:00 / no_variable_data 2010-02-22 21:41:29
  52. FromStats_BitRate : 1509000
  53. FromStats_Duration : 01:27:08.288000000
  54. FromStats_FrameCount : 490152
  55. FromStats_StreamSize : 986185824

  56. Text #1
  57. ID : 3
  58. Format : UTF-8
  59. Codec ID : S_TEXT/UTF8
  60. Codec ID/Info : UTF-8 Plain Text
  61. Language : English
  62. Default : No
  63. Forced : No
  64. Statistics Tags Issue : no_variable_data 1970-01-01 00:00:00 / no_variable_data 2010-02-22 21:41:29
  65. FromStats_BitRate : 37
  66. FromStats_Duration : 01:20:26.488000000
  67. FromStats_FrameCount : 944
  68. FromStats_StreamSize : 22460

  69. Text #2
  70. ID : 4
  71. Format : UTF-8
  72. Codec ID : S_TEXT/UTF8
  73. Codec ID/Info : UTF-8 Plain Text
  74. Title : SDH
  75. Language : English
  76. Default : No
  77. Forced : No
  78. Statistics Tags Issue : no_variable_data 1970-01-01 00:00:00 / no_variable_data 2010-02-22 21:41:29
  79. FromStats_BitRate : 38
  80. FromStats_Duration : 01:20:30.909000000
  81. FromStats_FrameCount : 1006
  82. FromStats_StreamSize : 23357

  83. Menu
  84. 00:00:00.000 : en:00:00:00.000
  85. 00:03:58.238 : en:00:03:58.238
  86. 00:06:14.708 : en:00:06:14.708
  87. 00:11:07.542 : en:00:11:07.542
  88. 00:12:34.128 : en:00:12:34.128
  89. 00:15:37.687 : en:00:15:37.687
  90. 00:18:19.223 : en:00:18:19.223
  91. 00:19:44.266 : en:00:19:44.266
  92. 00:21:19.445 : en:00:21:19.445
  93. 00:24:29.093 : en:00:24:29.093
  94. 00:29:00.781 : en:00:29:00.781
  95. 00:32:31.366 : en:00:32:31.366
  96. 00:36:52.127 : en:00:36:52.127
  97. 00:38:46.491 : en:00:38:46.491
  98. 00:40:10.158 : en:00:40:10.158
  99. 00:41:28.236 : en:00:41:28.236
  100. 00:43:23.518 : en:00:43:23.518
  101. 00:49:24.211 : en:00:49:24.211
  102. 00:50:10.674 : en:00:50:10.674
  103. 00:52:52.711 : en:00:52:52.711
  104. 00:55:24.988 : en:00:55:24.988
  105. 01:01:56.338 : en:01:01:56.338
  106. 01:05:35.098 : en:01:05:35.098
  107. 01:11:45.218 : en:01:11:45.218
  108. 01:14:24.126 : en:01:14:24.126
  109. 01:16:53.859 : en:01:16:53.859
  110. 01:19:50.703 : en:01:19:50.703
  111. 01:21:59.915 : en:01:21:59.915
  112. 01:23:44.394 : en:01:23:44.394





复制代码
回复

使用道具 举报

0

主题

0

好友

3969

积分

天王巨星

Rank: 4

UID
806012
主题
0
金钱
1818
高清币
394
鲜花
0
阅读权限
50
QQ
QQ
最后登录
2018-8-13
发表于 4 天前 |显示全部楼层
此帖仅作者可见

使用道具 举报

0

主题

0

好友

4579

积分

天王巨星

Rank: 4

UID
912187
主题
0
金钱
1579
高清币
891
鲜花
0
阅读权限
50
QQ
QQ
最后登录
2018-8-14
发表于 4 天前 |显示全部楼层
此帖仅作者可见

使用道具 举报

0

主题

0

好友

6446

积分

金鸡奖主角

Rank: 5Rank: 5

UID
163455
主题
0
金钱
4017
高清币
293
鲜花
0
阅读权限
70
QQ
QQ
最后登录
2018-8-14
发表于 4 天前 |显示全部楼层
此帖仅作者可见

使用道具 举报

0

主题

0

好友

937

积分

知名艺人

Rank: 2

UID
860413
主题
0
金钱
532
高清币
6
鲜花
0
阅读权限
20
QQ
QQ
最后登录
2018-8-13
发表于 5 天前 |显示全部楼层
此帖仅作者可见

使用道具 举报

0

主题

0

好友

1万

积分

超级明星

Rank: 7Rank: 7Rank: 7

UID
182768
主题
0
金钱
5355
高清币
2761
鲜花
0
阅读权限
90
QQ
QQ
最后登录
2018-8-13
发表于 5 天前 |显示全部楼层
此帖仅作者可见

使用道具 举报

0

主题

0

好友

3654

积分

天王巨星

Rank: 4

UID
197137
主题
0
金钱
2127
高清币
144
鲜花
0
阅读权限
50
QQ
QQ
最后登录
2018-8-11
发表于 5 天前 |显示全部楼层
此帖仅作者可见

使用道具 举报

1

主题

0

好友

1735

积分

人气偶像

Rank: 3Rank: 3

UID
851387
主题
1
金钱
1004
高清币
106
鲜花
0
阅读权限
30
QQ
QQ
最后登录
2018-8-12
发表于 5 天前 |显示全部楼层
此帖仅作者可见

使用道具 举报

期待您加入中国高清论坛QQ交流6群:20818254
 懒得打字嘛,点击右侧快捷回复【左侧自定义内容】  【右侧自定义内容】
您需要登录后才可以回帖 登录 | 立即注册

回顶部